Щелепи 2 / Jaws 2 (1978) Remux 1080p Ukr/Eng | Sub Ukr/Eng

Нові коментарі

Нова тема   Відповісти
Автор Повідомлення
MakRA 
VIP


З нами з: 10.11.18
Востаннє: 08.12.19
Повідомлень: 588

2019-03-01 20:36  
Щелепи 2 / Jaws 2 (1978) Remux 1080p Ukr/Eng | Sub Ukr/Eng



Жанр: пригодницький, жахи, драма
Країна: США



Кінокомпанія: Universal Pictures
Режисер: Жанно Шварц [Jeannot Szwarc]
Актори: Рой Шайдер [Roy Scheider], Лоррейн Гері [Lorraine Gary], Мюррей Гамільтон [Murray Hamilton], Коллін Вілкокс [Collin Wilcox], Джеффрі Креймер [Jeffrey Kramer], Джозеф Масколо [Joseph Mascolo].

Сюжет:
Вдруге Мартін Броді переконує місцевих жителів, що купатися в затоці небезпечно. Але лише після того, коли зустріч жорстокого вбивці з човном, на якому знаходилися підлітки, закінчилася трагічно, до населення доходить, що перебування на морі дуже швидкий спосіб стати жертвою щелеп. І знову на боротьбу з монстром виступають відважні поліцейські.

Фільм базується на однойменній новелі Пітера Бенчлі.


Цікаві факти:

-Спочатку фільм знімав режисер Джон Хенкок, але у зв'язку з невідповідністю був звільнений.
-Стівен Спілберг збирався робити сіквел разом з Річардом Дрейфусом, але виявилось, що він зайнятий зйомками фільму "Близькі контакти третього роду".
-Уламки шхуни, що з'являється у вступній сцені на дні моря це "Орка" - шхуна з першого фільму.


Тривалість: 01:56:15
Якість: Remux 1080p
Відео:
кодек:
розмір кадру: 1920 х 1080
бітрейт: 32,8 Мб/с

Аудіо # 1:
мова: українська
переклад: багатоголосий закадровий [УКРАЇНА] | студія "Так Треба Продакшн"
кодек: 2.0
бітрейт: 192 kb/s
Про озвучення:

Озвучено студією "Так Треба Продакшн" на замовлення ТРК "Україна".
Ролі озвучили:Володимир Терещук, Анатолій Пашнін, Олена Яблучна і Людмила Чиншева.
Аудіо # 2:
мова: англійська
переклад: оригінал
кодек: -HD MA 2.0
бітрейт: 1873 кб/с

Субтитри # 1: (Full) [_oles/igor911]
мова: українська
тип: пререндерні
формат: *.pgs

Субтитри # 2: (SDH)
мова: англійська
тип: пререндерні
формат: *.pgs
Info
General
Unique ID : 149148778386656090454646173557674465893 (0x703502854A91F5AC12D882595807DA65)
Complete name : F:\Триллер, жахи\Щелепи. Колекція\Jaws 2 (1978) Remux 1080p UkrEng Sub UkrEng [Hurtom].
Format :
Format version : Version 4 / Version 2
File size : 28.4 GiB
Duration : 1 h 56 min
Overall bit rate mode : Variable
Overall bit rate : 34.9 Mb/s
Movie name : Щелепи 2 / Jaws 2 (1978) Remux 1080p Ukr/Eng | Sub Ukr/Eng [Hurtom]
Encoded date : UTC 2019-03-01 11:37:24
Writing application : v25.0.0 ('Prog Noir') 64-bit
Writing library : libebml v1.3.6 + v1.4.9

Video
ID : 1
Format : AVC
Format/Info : Advanced Video Codec
Format profile : [email protected]
Format settings, CABAC : Yes
Format settings, RefFrames : 4 frames
Codec ID : V_MPEG4/ISO/AVC
Duration : 1 h 56 min
Bit rate mode : Variable
Bit rate : 32.8 Mb/s
Maximum bit rate : 35.0 Mb/s
Width : 1 920 pixels
Height : 1 080 pixels
Display aspect ratio : 16:9
Frame rate mode : Constant
Frame rate : 23.976 (24000/1001) FPS
Color space : YUV
Chroma subsampling : 4:2:0
Bit depth : 8 bits
Scan type : Progressive
Bits/(Pixel*Frame) : 0.661
Stream size : 26.7 GiB (94%)
Title : Jaws 2 (1978) Remux 1080p Ukr/Eng | Sub Ukr/Eng [Hurtom]
Language : Ukrainian
Default : Yes
Forced : Yes

Audio #1
ID : 2
Format : AC-3
Format/Info : Audio Coding 3
Format settings, Endianness : Big
Codec ID : A_AC3
Duration : 1 h 56 min
Bit rate mode : Constant
Bit rate : 192 kb/s
Channel(s) : 2 channels
Channel positions : Front: L R
Sampling rate : 48.0 kHz
Frame rate : 31.250 FPS (1536 SPF)
Bit depth : 16 bits
Compression mode : Lossy
Stream size : 160 MiB (1%)
Title : MVO [УКРАЇНА]
Language : Ukrainian
Service kind : Complete Main
Default : Yes
Forced : Yes

Audio #2
ID : 3
Format :
Format/Info : Digital Theater Systems
Format profile : MA / Core
Mode : 16
Format settings, Endianness : Big
Codec ID : A_DTS
Duration : 1 h 56 min
Bit rate mode : Variable / Constant
Bit rate : 1 873 kb/s / 1 509 kb/s
Channel(s) : 2 channels
Channel positions : Front: L R
Sampling rate : 48.0 kHz
Frame rate : 93.750 FPS (512 SPF)
Bit depth : 24 bits
Compression mode : Lossless / Lossy
Stream size : 1.52 GiB (5%)
Title : Original -HD MA
Language : English
Default : No
Forced : No

Text #1
ID : 4
Format : PGS
Muxing mode : zlib
Codec ID : S_HDMV/PGS
Codec ID/Info : Picture based subtitle format used on BDs/HD-DVDs
Duration : 1 h 53 min
Bit rate : 18.0 kb/s
Count of elements : 1754
Stream size : 14.5 MiB (0%)
Title : Ukr (Full) [_oles | igor911]
Language : Ukrainian
Default : Yes
Forced : No

Text #2
ID : 5
Format : PGS
Muxing mode : zlib
Codec ID : S_HDMV/PGS
Codec ID/Info : Picture based subtitle format used on BDs/HD-DVDs
Duration : 1 h 50 min
Bit rate : 31.3 kb/s
Count of elements : 2724
Stream size : 24.8 MiB (0%)
Title : Eng (SDH)
Language : English
Default : No
Forced : No
Скріншоти
Джерело: &
Подяка п._oles за зведення та субтитри, п. igor911 коригування субтитрів і п. karvai0 за запис з ТБ.
Особиста оцінка: 10 - без зайвих вагань рекомендую всім!




Золотий реліз (завантажене не впливає на рейтинг)
 Трекер:    Зареєстрований   

Завантажити / скачати фільм українською



відео для новачків



 Зареєстрований:   2019-03-01 20:36
 Розмір:   28.36 GB 
 Оцінка фільму:   10/10 (Голосів: 6)
   
Інші релізи
   Щелепи 2 / Jaws 2 (1978) Ukr/Eng | Sub Ukr/Eng igor911  1 / 0   2.02 GB   2016-09-05 11:17 
   Щелепи 2 / Jaws 2 (1978) 720p Ukr/Eng | Sub Ukr/Eng igor911  0 / 0   8.69 GB   2016-09-05 09:48 
[email protected] 
VIP


З нами з: 24.03.17
Востаннє: 07.12.19
Повідомлень: 399

2019-03-07 23:01  
Абсолютно не гірший за перший фільм, мені сподобався
Ваш часовий пояс: GMT + 2 Години

Нова тема   Відповісти