Родина за хвилину / Instant Family (2018) 1080p Ukr/Eng | Sub Eng

Нові коментарі

Нова тема   Відповісти
Автор Повідомлення
staf777 
Відео Гуртом - підтримка та поширення
Відео Гуртом - підтримка та поширення


З нами з: 16.11.16
Востаннє: 18.04.19
Повідомлень: 2258

2019-03-01 10:53  
Родина за хвилину / Instant Family (2018) 1080p Ukr/Eng | Sub Eng

Родина за хвилину / Instant Family (2018) 1080p Ukr/Eng | Sub Eng


Жанр: драма, комедія
Країна: США



Кінокомпанія: Paramount Pictures
Режисер: Шон Андерс
Актори: Марк Волберґ, Роуз Бірн, Ізабела Монер, Ґуставо Куірос, Джуліанна Ґаміз, Октавія Спенсер, Тіґ Нотаро, Марго Мартіндейл, Джоан Кьюсак, Чарлі МакДермотт та інші

Сюжет:
Піт та Еллі Вагнери завжди мріяли про велику дружню родину. Йдуть роки, а народити дітей їм ніяк не вдається. Якось Еллі вмовила чоловіка подумати над усиновленням малюка. Та подумати Піт не встиг. Завітавши до притулку для дітей, аби розібратися що до чого, Вагнери незчулися, як стали батьками трьох малих – брата та двох сестричок. Усе, що відбувалося з ними далі, аж ніяк не вкладалося у їхні уявлення про щасливе батьківство.


Тривалість: 01:58:05
Якість: 1080p
Відео:
кодек:
розмір кадру: 1920x800
бітрейт: 9091 кб/с

Аудіо # 1:
мова: українська
переклад: професійний дубльований | студія LeDoyen
кодек: 2.0
бітрейт: 192 кб/с

Аудіо # 2:
мова: англійська
переклад: оригінал
кодек: 5.1
бітрейт: 1509 кб/с

Субтитри:
мова: англійська
тип: програмні (м'які)
формат: *.srt
Info
General
Unique ID : 95275271954792061755558206352466450768 (0x47AD59947891323373DCF17F762D1950)
Complete name : S:\» HD українською » Фільми в HD\Комедія\Instant Family (2018) BDRip1080p [UKR_ENG] [Hurtom].
Format :
Format version : Version 4
File size : 8.90 GiB
Duration : 1 h 58 min
Overall bit rate : 10.8 Mb/s
Movie name : Instant Family (2018) BDRip1080p [UKR_ENG] [Hurtom]
Encoded date : UTC 2019-03-01 07:34:39
Writing application : v30.1.0 ('Forever And More') 64-bit
Writing library : libebml v1.3.6 + v1.4.9
Cover : Yes
Attachments : cover.jpg

Video
ID : 1
Format : AVC
Format/Info : Advanced Video Codec
Format profile : [email protected]
Format settings : CABAC / 5 Ref Frames
Format settings, CABAC : Yes
Format settings, ReFrames : 5 frames
Codec ID : V_MPEG4/ISO/AVC
Duration : 1 h 58 min
Bit rate : 9 091 kb/s
Width : 1 920 pixels
Height : 800 pixels
Display aspect ratio : 2.40:1
Frame rate mode : Constant
Frame rate : 23.976 (24000/1001) FPS
Color space : YUV
Chroma subsampling : 4:2:0
Bit depth : 8 bits
Scan type : Progressive
Bits/(Pixel*Frame) : 0.247
Stream size : 7.50 GiB (84%)
Writing library : core 157 r2935 545de2f
Encoding settings : cabac=1 / ref=5 / deblock=1:-3:-3 / analyse=0x3:0x113 / me=umh / subme=8 / psy=1 / psy_rd=1.00:0.00 / mixed_ref=1 / me_range=16 / chroma_me=1 / trellis=1 / 8x8dct=1 / cqm=0 / deadzone=21,11 / fast_pskip=1 / chroma_qp_offset=-2 / threads=24 / lookahead_threads=4 / sliced_threads=0 / nr=0 / decimate=1 / interlaced=0 / bluray_compat=0 / constrained_intra=0 / bframes=3 / b_pyramid=2 / b_adapt=1 / b_bias=0 / direct=3 / weightb=1 / open_gop=0 / weightp=2 / keyint=250 / keyint_min=23 / scenecut=40 / intra_refresh=0 / rc_lookahead=50 / rc=2pass / mbtree=1 / bitrate=9091 / ratetol=1.0 / qcomp=0.60 / qpmin=0 / qpmax=69 / qpstep=4 / cplxblur=20.0 / qblur=0.5 / ip_ratio=1.40 / aq=1:1.00
Language : English
Default : Yes
Forced : No

Audio #1
ID : 2
Format : AC-3
Format/Info : Audio Coding 3
Commercial name : Dolby Digital
Codec ID : A_AC3
Duration : 1 h 58 min
Bit rate mode : Constant
Bit rate : 192 kb/s
Channel(s) : 2 channels
Channel layout : L R
Sampling rate : 48.0 kHz
Frame rate : 31.250 FPS (1536 SPF)
Bit depth : 16 bits
Compression mode : Lossy
Stream size : 162 MiB (2%)
Language : Ukrainian
Service kind : Complete Main
Default : Yes
Forced : Yes

Audio #2
ID : 3
Format :
Format/Info : Digital Theater Systems
Codec ID : A_DTS
Duration : 1 h 58 min
Bit rate mode : Constant
Bit rate : 1 509 kb/s
Channel(s) : 6 channels
Channel layout : C L R Ls Rs LFE
Sampling rate : 48.0 kHz
Frame rate : 93.750 FPS (512 SPF)
Bit depth : 24 bits
Compression mode : Lossy
Stream size : 1.24 GiB (14%)
Language : English
Default : No
Forced : No

Text
ID : 4
Format : UTF-8
Codec ID : S_TEXT/UTF8
Codec ID/Info : UTF-8 Plain Text
Duration : 1 h 52 min
Bit rate : 97 b/s
Count of elements : 2136
Stream size : 80.0 KiB (0%)
Language : English
Default : No
Forced : No
Скріншоти



Джерело: &
Особиста оцінка: 0 - не дивився


 Трекер:    Зареєстрований   

Завантажити / скачати фільм українською



відео для новачків



 Зареєстрований:   2019-03-01 10:53
 Розмір:   8.9 GB 
 Оцінка фільму:   8.7/10 (Голосів: 30)
   
Інші релізи
gesko 
Новенький


З нами з: 16.02.17
Востаннє: 18.04.19
Повідомлень: 18

2019-03-01 22:40  
Додав до улюблених фільмів
eugene_ramone 
Частий відвідувач


З нами з: 24.02.14
Востаннє: 15.04.19
Повідомлень: 25

2019-03-21 20:12  
Досить якісна комедія. Від режисера "Хто в домі тато" та "Мій пацан" навіть не очікував чогось вартого уваги. Приємно здивований.
Cure 
Новенький


З нами з: 06.01.11
Востаннє: 29.03.19
Повідомлень: 8

2019-03-21 20:55  
Прикольний фільм, якісний, життєвий гумор)
0mage0 
VIP


З нами з: 06.10.15
Востаннє: 18.04.19
Повідомлень: 456

2019-04-06 19:34  
Є декілька смішних моментів, але загалом дуже огидно дивитися на цих зухвалих, нахабних та невдячних дітей, особливо старшу, яких забезпечили житлом та їжею, а вони у відповідь тільки й роблять що хамлять.
Невже вона вважала, що в дитбудинку їй буде краще, ніж з цими адекватними батьками? Чи може краще зі справжньою мамою-наркоманкою? Пришелепкувата.

Ваш часовий пояс: GMT + 2 Години

Нова тема   Відповісти