Перспектива / Prospect (2018) 1080p Ukr/Eng

Нові коментарі

Нова тема   Відповісти
Автор Повідомлення
staf777 
Відео Гуртом - підтримка та поширення
Відео Гуртом - підтримка та поширення


З нами з: 16.11.16
Востаннє: 26.04.19
Повідомлень: 2293

2019-03-01 09:55  
Перспектива / Prospect (2018) 1080p Ukr/Eng

Перспектива / Prospect (2018) 1080p Ukr/Eng


Жанр: драма, фантастика, трилер
Країна: Канада, США



Кінокомпанія: Depth of Field, Ground Control, BRON Studios
Режисер: Крістофер Колдвелл / Christopher Caldwell, Зік Ерл / Zeek Earl
Актори: Софі Тачер / Sophie Thatcher, Джей Дуплас / Jay Duplass, Педро Паскаль / Pedro Pascal, Люк Піцрік / Luke Pitzrick, Артур Деранлуа / Arthur Deranleau, Андре Ройо / Andre Royo, Алекс МакКалі / Alex McCauley, Даґ Доусон / Doug Dawson, Кріста Джонсон / Krista Johnson, Браян Ґантер / Brian Gunter та інші.

Сюжет:
Дівчинка-підліток разом з батьком-наркоманом прилітають на одну з планет, щоб взяти участь в пошуку рідкісних і дуже дорогих мінералів, які допоможуть їм вирішити фінансові проблеми родини. Дівчинка хоче отримати пристойну освіту, а таткові треба розрахуватися з боргами. У батька є карта, яка повинна допомогти у виконанні задуманого, але існують і перешкоди. Повітря планети наповнене отруйним пилом, який змушує носити апарати для дихання, а навколо ходять конкуруючі групи таких же стражденних до багатств дослідників. Одна така зустріч призводить до смерті батька і старателя-конкурента. Молода дівчина змушена об’єднати сили з конкурентом, аби вижити у ворожому середовищі…


Тривалість: 01:39:45
Якість: 1080p
Відео:
кодек:
розмір кадру: 1912x1028
бітрейт: 5204 кб/с

Аудіо # 1:
мова: українська
переклад: багатоголосий закадровий| DniproFilm
кодек: 5.1
бітрейт: 384 кб/с

Аудіо # 2:
мова: англійська
переклад: оригінал
кодек: 5.1
бітрейт: 384 кб/с
Info
General
Unique ID : 191593616375640799068029011594390074650 (0x9023969A60E459A9F6A52C3CD5ECF51A)
Complete name : S:\» HD українською » Фільми в HD\Фантастика\Prospect (2018) 1080p [UKR_ENG] [Hurtom].
Format :
Format version : Version 4
File size : 4.16 GiB
Duration : 1 h 39 min
Overall bit rate : 5 974 kb/s
Movie name : Prospect (2018) 1080p [UKR_ENG] [Hurtom]
Encoded date : UTC 2019-03-01 06:53:09
Writing application : v30.1.0 ('Forever And More') 64-bit
Writing library : libebml v1.3.6 + v1.4.9
Cover : Yes
Attachments : cover.jpg

Video
ID : 1
Format : AVC
Format/Info : Advanced Video Codec
Format profile : [email protected]
Format settings : CABAC / 4 Ref Frames
Format settings, CABAC : Yes
Format settings, ReFrames : 4 frames
Codec ID : V_MPEG4/ISO/AVC
Duration : 1 h 39 min
Bit rate : 5 204 kb/s
Width : 1 912 pixels
Height : 1 028 pixels
Display aspect ratio : 1.85:1
Frame rate mode : Constant
Frame rate : 24.000 FPS
Color space : YUV
Chroma subsampling : 4:2:0
Bit depth : 8 bits
Scan type : Progressive
Bits/(Pixel*Frame) : 0.110
Stream size : 3.63 GiB (87%)
Language : English
Default : Yes
Forced : No
Color range : Limited
Color primaries : BT.709
Transfer characteristics : BT.709
Matrix coefficients : BT.709

Audio #1
ID : 2
Format : AC-3
Format/Info : Audio Coding 3
Commercial name : Dolby Digital
Codec ID : A_AC3
Duration : 1 h 39 min
Bit rate mode : Constant
Bit rate : 384 kb/s
Channel(s) : 6 channels
Channel layout : L R C LFE Ls Rs
Sampling rate : 48.0 kHz
Frame rate : 31.250 FPS (1536 SPF)
Bit depth : 16 bits
Compression mode : Lossy
Delay relative to video : -42 ms
Stream size : 274 MiB (6%)
Title : DniproFilm
Language : Ukrainian
Service kind : Complete Main
Default : Yes
Forced : Yes

Audio #2
ID : 3
Format : AC-3
Format/Info : Audio Coding 3
Commercial name : Dolby Digital
Codec ID : A_AC3
Duration : 1 h 39 min
Bit rate mode : Constant
Bit rate : 384 kb/s
Channel(s) : 6 channels
Channel layout : L R C LFE Ls Rs
Sampling rate : 48.0 kHz
Frame rate : 31.250 FPS (1536 SPF)
Bit depth : 16 bits
Compression mode : Lossy
Delay relative to video : -42 ms
Stream size : 274 MiB (6%)
Language : English
Service kind : Complete Main
Default : No
Forced : No

Menu
00:00:00.000 : en:1
00:02:31.000 : en:2
00:13:07.000 : en:3
00:21:17.000 : en:4
00:33:49.000 : en:5
00:46:57.000 : en:6
00:59:27.000 : en:7
01:08:54.000 : en:8
01:20:40.000 : en:9
01:33:55.000 : en:10
Скріншоти



Джерело:
Особиста оцінка: 0 - не дивився


Авторський реліз (завантажувати можна без реєстрації)
 Трекер:    Зареєстрований   

Завантажити / скачати фільм українською



відео для новачків



 Зареєстрований:   2019-03-01 09:57
 Розмір:   4.16 GB 
 Оцінка фільму:   7.9/10 (Голосів: 29)
   
Інші релізи
   Перспектива / Prospect (2018) AVC Ukr/Eng Sando7  75 / 0   1.94 GB   2019-02-27 17:14 
ftp 
Частий відвідувач


З нами з: 24.05.12
Востаннє: 12.04.19
Повідомлень: 26

2019-03-02 17:19  
якесь таке)
Wensun 
Свій


З нами з: 20.01.09
Востаннє: 25.04.19
Повідомлень: 128

2019-03-03 16:08  
підтримую, "якесь таке". початок ніби є... а далі йшло йшло і закінчилось. не розвинена ідея
waldi-hurtom 
VIP


З нами з: 07.10.12
Востаннє: 26.04.19
Повідомлень: 954

2019-03-03 20:47  
Сміттячко. Не зміг додивитися. Таке враження, що знімалося років 30-40 тому людиною, що про фантастику знає по книжкам Беляєва. 2 з 10
Neolo 
Новенький


З нами з: 13.11.10
Востаннє: 13.04.19
Повідомлень: 18

2019-03-12 08:32  
Рiдкiсний трешнячок, зйомки жах. Ледве додивився.
myru22 
Частий відвідувач


З нами з: 27.11.16
Востаннє: 26.04.19
Повідомлень: 37

2019-03-15 16:20  
йой. а мені ся сподобалося.
LastOfTheWilds 
Частий відвідувач


З нами з: 21.08.11
Востаннє: 21.04.19
Повідомлень: 30

2019-03-20 00:33  
Фільм просто шик. Як таке пройшло повз мене в 2018 - невідомо. Певно кіноіндустрія настільки сильно налаштовано на лайно, що такі картини все важче і важче знайти.
Раджу всім хто любить якісну сучасну фантастику типу Інтерстеллара, Екс Махіни чи Прибуття.

Nymizmat 
Новенький


З нами з: 09.11.14
Востаннє: 25.04.19
Повідомлень: 22

2019-04-02 22:27  
Задум фільму загалом не поганий, але з цієї ідеї можна було б створити дещо значно краще. Не сподобалось, що сцени фільму йдуть не чітко одна за одною, а наче перестрибують. Багато дрібних деталей взагалі пропущено. Через це враження після перегляду не дуже 3/10.
Sepoolka 
Свій


З нами з: 27.05.09
Востаннє: 25.04.19
Повідомлень: 94

2019-04-03 00:12  
А мені сподобався фільм, як на мене цілком можливий і такий розвиток подій, єдине до чого б придерся - розміри човників для виходу на орбіту, якісь вони за тендітні і замалі для планети з атмосферою і стандартним тяжінням.
Ваш часовий пояс: GMT + 2 Години

Нова тема   Відповісти