На лінії вогню / In the Line of Fire (1993) Remux 1080p Ukr/Eng | Sub Eng

Нові коментарі

Нова тема   Відповісти
Автор Повідомлення
MakRA 
VIP


З нами з: 10.11.18
Востаннє: 09.12.19
Повідомлень: 591

2019-02-28 23:32  
На лінії вогню / In the Line of Fire (1993) Remux 1080p Ukr/Eng | Sub Eng

На лінії вогню / In the Line of Fire (1993) Remux 1080p Ukr/Eng | Sub Eng


Жанр: екшн, драма, кримінальний, трилер
Країна: США



Кінокомпанія: Columbia Pictures Corporation, Castle Rock Entertainment
Режисер: Вольфганг Петерсен [Wolfgang Petersen]
Актори: Клінт Іствуд [Clint Eastwood], Джон Малковіч [John Malkovich], Рене Руссо [Rene Russo], Ділан МакДермот [Dylan McDermott], Гері Коул [Gary Cole], Фред Долтон Томпсон [Fred Dalton Thompson], Джон Махоні [John Mahoney], Грегорі Алан Вільямс [Gregory Alan Williams], Джим Керлі [Jim Curley], Селлі Х'юз [Sally Hughes].

Сюжет:
У той нещасливий день, коли в Далласі був убитий президент Кеннеді, Френк Хорріган знаходився серед охорони. Спогади про невиконану місію вже багато років не дають йому спати спокійно.

Через 30 років маніяк-психопат, що загрожує вбити президента, вибирає Френка мішенню для переслідування. І в цій небезпечній грі лише сила волі вирішить, хто залишиться в живих...


Тривалість: 02:08:37
Якість: Remux 1080p
Відео:
кодек:
розмір кадру: 1920 х 1080
бітрейт: 24.9 Mb/s

Аудіо # 1:
мова: українська
переклад: багатоголосий закадровий [НТН] | студія "Так Треба Продакшн"
кодек: 5.1
бітрейт: 384 kb/s

Аудіо # 2:
мова: англійська
переклад: оригінал
кодек: TrueHD 5.1
бітрейт: 1 435 kb/s

Аудіо # 3:
мова: англійська
переклад: оригінал
кодек: 5.1
бітрейт: 640 kb/s

Аудіо # 4:
мова: англійська
переклад: оригінал | коментарі режисера Вольфганга Петерсена
кодек: 2.0
бітрейт: 192 kb/s

Субтитри # 1-2: (Full/SDH)
мова: англійська
тип: пререндерні
формат: *.pgs

Субтитри # 3: | на коментарі
мова: англійська
тип: пререндерні
формат: *.pgs
Info
General
Unique ID : 122526557819418248667612381688626115670 (0x5C2DC1B50A68598C57CD5D5FE00F7456)
Complete name : F:\Триллери, кримінал\In the Line of Fire (1993) Remux 1080p UkrEng Sub Eng [Hurtom].
Format :
Format version : Version 4 / Version 2
File size : 24.9 GiB
Duration : 2 h 8 min
Overall bit rate mode : Variable
Overall bit rate : 27.7 Mb/s
Movie name : На лінії вогню / In the Line of Fire (1993) Remux 1080p Ukr/Eng | Sub Eng [Hurtom]
Encoded date : UTC 2019-02-28 11:35:32
Writing application : v25.0.0 ('Prog Noir') 64-bit
Writing library : libebml v1.3.6 + v1.4.9

Video
ID : 1
Format : AVC
Format/Info : Advanced Video Codec
Format profile : [email protected]
Format settings, CABAC : Yes
Format settings, RefFrames : 2 frames
Codec ID : V_MPEG4/ISO/AVC
Duration : 2 h 8 min
Bit rate mode : Variable
Bit rate : 24.9 Mb/s
Width : 1 920 pixels
Height : 1 080 pixels
Display aspect ratio : 16:9
Frame rate mode : Constant
Frame rate : 23.976 (24000/1001) FPS
Color space : YUV
Chroma subsampling : 4:2:0
Bit depth : 8 bits
Scan type : Progressive
Bits/(Pixel*Frame) : 0.502
Stream size : 22.4 GiB (90%)
Title : In the Line of Fire (1993) Remux 1080p Ukr/Eng | Sub Eng [Hurtom]
Language : Ukrainian
Default : Yes
Forced : Yes

Audio #1
ID : 2
Format : AC-3
Format/Info : Audio Coding 3
Format settings, Endianness : Big
Codec ID : A_AC3
Duration : 2 h 8 min
Bit rate mode : Constant
Bit rate : 384 kb/s
Channel(s) : 6 channels
Channel positions : Front: L C R, Side: L R, LFE
Sampling rate : 48.0 kHz
Frame rate : 31.250 FPS (1536 SPF)
Bit depth : 16 bits
Compression mode : Lossy
Stream size : 353 MiB (1%)
Title : MVO [НТН] | студія "Так Треба Продакшн"
Language : Ukrainian
Service kind : Complete Main
Default : Yes
Forced : No

Audio #2
ID : 3
Format : TrueHD
Codec ID : A_TRUEHD
Duration : 2 h 8 min
Bit rate mode : Variable
Bit rate : 1 435 kb/s
Maximum bit rate : 2 970 kb/s
Channel(s) : 6 channels
Channel positions : Front: L C R, Side: L R, LFE
Sampling rate : 48.0 kHz
Frame rate : 1 200.000 FPS (40 SPF)
Compression mode : Lossless
Stream size : 1.29 GiB (5%)
Title : Original TrueHD
Language : English
Default : No
Forced : No

Audio #3
ID : 4
Format : AC-3
Format/Info : Audio Coding 3
Format settings, Endianness : Big
Codec ID : A_AC3
Duration : 2 h 8 min
Bit rate mode : Constant
Bit rate : 640 kb/s
Channel(s) : 6 channels
Channel positions : Front: L C R, Side: L R, LFE
Sampling rate : 48.0 kHz
Frame rate : 31.250 FPS (1536 SPF)
Bit depth : 16 bits
Compression mode : Lossy
Stream size : 589 MiB (2%)
Title : Original
Language : English
Service kind : Complete Main
Default : No
Forced : No

Audio #4
ID : 5
Format : AC-3
Format/Info : Audio Coding 3
Mode : Dolby Digital
Format settings, Endianness : Big
Codec ID : A_AC3
Duration : 2 h 8 min
Bit rate mode : Constant
Bit rate : 192 kb/s
Channel(s) : 2 channels
Channel positions : Front: L R
Sampling rate : 48.0 kHz
Frame rate : 31.250 FPS (1536 SPF)
Bit depth : 16 bits
Compression mode : Lossy
Stream size : 177 MiB (1%)
Title : Original | commentary featuring Wolfgang Petersen
Language : English
Service kind : Complete Main
Default : No
Forced : No

Text #1
ID : 6
Format : PGS
Muxing mode : zlib
Codec ID : S_HDMV/PGS
Codec ID/Info : Picture based subtitle format used on BDs/HD-DVDs
Duration : 2 h 1 min
Bit rate : 26.1 kb/s
Count of elements : 1845
Stream size : 22.6 MiB (0%)
Title : Eng (full)
Language : English
Default : No
Forced : No

Text #2
ID : 7
Format : PGS
Muxing mode : zlib
Codec ID : S_HDMV/PGS
Codec ID/Info : Picture based subtitle format used on BDs/HD-DVDs
Duration : 2 h 5 min
Bit rate : 25.7 kb/s
Count of elements : 2990
Stream size : 23.1 MiB (0%)
Title : Eng (SDH)
Language : English
Default : No
Forced : No

Text #3
ID : 8
Format : PGS
Muxing mode : zlib
Codec ID : S_HDMV/PGS
Codec ID/Info : Picture based subtitle format used on BDs/HD-DVDs
Duration : 2 h 3 min
Bit rate : 54.8 kb/s
Count of elements : 3941
Stream size : 48.5 MiB (0%)
Title : Eng | commentary featuring Wolfgang Petersen
Language : English
Default : No
Forced : No
Скріншоти
Джерело: &
За українську доріжку подяка п. Romario_O
Особиста оцінка: 10 - без зайвих вагань рекомендую всім!


Золотий реліз (завантажене не впливає на рейтинг)
 Трекер:    Зареєстрований   

Завантажити / скачати фільм українською



відео для новачків



 Зареєстрований:   2019-02-28 23:32
 Розмір:   24.89 GB 
 Оцінка фільму:   10/10 (Голосів: 7)
   
Ваш часовий пояс: GMT + 2 Години

Нова тема   Відповісти