Міські легенди / Urban Legend (1998) 1080p H.265 2xUkr/Eng | Sub Eng

Нові коментарі

Нова тема   Відповісти
Останній раз роздавалося -Star-Lord- (2019-03-13)
Автор Повідомлення
-Star-Lord- 
VIP


З нами з: 09.08.18
Востаннє: 18.04.19
Повідомлень: 735

2019-02-28 17:50  
Міські легенди / Urban Legend (1998) 1080p H.265 2xUkr/Eng | Sub Eng

Міські легенди / Urban Legend (1998) 1080p H.265 2xUkr/Eng | Sub Eng


Жанр: жахи, трилер, детектив
Країна: США, Франція
Кінокомпанія: TriStar Pictures, Canal+ Droits Audiovisuels, Original Film, Phoenix Pictures
Режисер: Джеймі Бленкс
Актори: Алісія Віт, Джаред Лето, Ребекка Гейгарт, Майкл Розенбаум, Джошуа Джексон, Даніель Гарріс, Джон Невілл, Лоретта Дівайн,

Сюжет:
Тихе студентське містечко сколихнула серія кривавих убивств, скоєних з безпрецедентною жорстокістю. Поліція не здогадується, що вони якимсь чином пов'язані, адже між цими жорстокими злочинами немає нічого спільного. Однак студентці Наталі вдалося виявити страшний зв'язок. На перший погляд, він здається неймовірним: у кожному вбивстві оживають міські легенди, страшні історії з сучасного фольклору, передавані з вуст у вуста. Ні викладачі, ні друзі не вірять дівчині... і стають наступними жертвами таємничого вбивці.

Тривалість: 01:39:38
Якість:
Відео:
кодек: H.265 (HEVC)
розмір кадру: 1920 x 800
бітрейт: 6 820 кб/с
бітова глибина: 10 біт
Увага! Перед завантаженням переконайтесь, що ваш пристрій відтворення (та/або ПЗ) підтримує H.265 (HEVC)

Аудіо # 1:
мова: українська
переклад: двоголосий закадровий
кодек: AC-3 2.0
бітрейт: 192 кб/с

Аудіо # 2:
мова: українська
переклад: двоголосий закадровий
кодек: AC-3 2.0
бітрейт: 192 кб/с
примітка: на проміжку 01:31:34-01:36:07 використано озвучення студії "1+1" через неповний запис з Нового каналу

Аудіо # 3:
мова: англійська
переклад: оригінал
кодек: AC-3 5.1
бітрейт: 640 кб/с

Субтитри # 1:
мова: англійська (Full),
тип: програмні (м'які)
формат: *.srt


Info
Код:
General
Unique ID                                : 64835625654378550640789848716191786855 (0x30C6E325822FA5329718F4746AA8E767)
Complete name                            : F:\Video\Urban Legend (1998) 1080p H.265 [2xUKR_ENG] [Hurtom].
Format                                   :
Format version                           : Version 4 / Version 2
File size                                : 5.46 GiB
Duration                                 : 1 h 39 min
Overall bit rate                         : 7 847 kb/s
Movie name                               : Urban Legend (1998)
Encoded date                             : UTC 2019-02-28 14:37:05
Writing application                      : v20.0.0 ('I Am The Sun') 64-bit
Writing library                          : libebml v1.3.5 + v1.4.8
Cover                                    : Yes
Attachments                              : Cover.jpg

Video
ID                                       : 1
Format                                   : HEVC
Format/Info                              : High Efficiency Video Coding
Format profile                           : Main [email protected]@High
Codec ID                                 : V_MPEGH/ISO/HEVC
Duration                                 : 1 h 39 min
Bit rate                                 : 6 820 kb/s
Width                                    : 1 920 pixels
Height                                   : 800 pixels
Display aspect ratio                     : 2.40:1
Frame rate mode                          : Constant
Frame rate                               : 23.976 (24000/1001) FPS
Color space                              : YUV
Chroma subsampling                       : 4:2:0
Bit depth                                : 10 bits
Bits/(Pixel*Frame)                       : 0.185
Stream size                              : 4.75 GiB (87%)
Title                                    : Urban Legend (1998)
Writing library                          : x265 2.9+9-f74003e88622:[Windows][GCC 8.2.0][64 bit] 10bit
Encoding settings                        : cpuid=1111039 / frame-threads=13 / numa-pools=12 / wpp / no-pmode / no-pme / no-psnr / no-ssim / log-level=3 / input-csp=1 / input-res=1920x800 / interlace=0 / total-frames=0 / level-idc=41 / high-tier=1 / uhd-bd=0 / ref=5 / allow-non-conformance / no-repeat-headers / annexb / no-aud / no-hrd / info / hash=0 / no-temporal-layers / no-open-gop / min-keyint=23 / keyint=240 / gop-lookahead=0 / bframes=8 / b-adapt=2 / b-pyramid / bframe-bias=0 / rc-lookahead=60 / lookahead-slices=4 / scenecut=40 / radl=0 / no-intra-refresh / ctu=64 / min-cu-size=8 / rect / no-amp / max-tu-size=32 / tu-inter-depth=3 / tu-intra-depth=3 / limit-tu=0 / rdoq-level=2 / dynamic-rd=0.00 / no-ssim-rd / signhide / no-tskip / nr-intra=0 / nr-inter=0 / no-constrained-intra / no-strong-intra-smoothing / max-merge=3 / limit-refs=3 / no-limit-modes / me=3 / subme=7 / merange=57 / temporal-mvp / weightp / weightb / no-analyze-src-pics / deblock=-3:-3 / no-sao / no-sao-non-deblock / rd=6 / no-early-skip / rskip / no-fast-intra / no-tskip-fast / no-cu-lossless / no-b-intra / no-splitrd-skip / rdpenalty=0 / psy-rd=2.00 / psy-rdoq=0.00 / no-rd-refine / no-lossless / cbqpoffs=0 / crqpoffs=0 / rc=crf / crf=18.0 / qcomp=0.70 / qpstep=4 / stats-write=0 / stats-read=0 / vbv-maxrate=50000 / vbv-bufsize=50000 / vbv-init=0.9 / crf-max=30.0 / crf-min=0.0 / ipratio=1.40 / pbratio=1.30 / aq-mode=2 / aq-strength=1.00 / cutree / zone-count=0 / no-strict-cbr / qg-size=32 / no-rc-grain / qpmax=69 / qpmin=0 / no-const-vbv / sar=1 / overscan=0 / videoformat=5 / range=0 / colorprim=1 / transfer=1 / colormatrix=1 / chromaloc=0 / display-window=0 / max-cll=0,0 / min-luma=0 / max-luma=1023 / log2-max-poc-lsb=8 / vui-timing-info / vui-hrd-info / slices=1 / no-opt-qp-pps / no-opt-ref-list-length-pps / no-multi-pass-opt-rps / scenecut-bias=0.05 / no-opt-cu-delta-qp / aq-motion / no-hdr / no-hdr-opt / no-dhdr10-opt / no-idr-recovery-sei / analysis-reuse-level=5 / scale-factor=0 / refine-intra=0 / refine-inter=0 / refine-mv=0 / no-limit-sao / ctu-info=0 / no-lowpass-dct / refine-mv-type=0 / copy-pic=1 / max-ausize-factor=1.0 / no-dynamic-refine / no-single-sei
Language                                 : English
Default                                  : Yes
Forced                                   : No
Color range                              : Limited
Color primaries                          : BT.709
Transfer characteristics                 : BT.709
Matrix coefficients                      : BT.709

Audio #1
ID                                       : 2
Format                                   : AC-3
Format/Info                              : Audio Coding 3
Codec ID                                 : A_AC3
Duration                                 : 1 h 39 min
Bit rate mode                            : Constant
Bit rate                                 : 192 kb/s
Channel(s)                               : 2 channels
Channel positions                        : Front: L R
Sampling rate                            : 48.0 kHz
Frame rate                               : 31.250 FPS (1536 SPF)
Bit depth                                : 16 bits
Compression mode                         : Lossy
Stream size                              : 137 MiB (2%)
Title                                    : ДЗ - 1+1
Language                                 : Ukrainian
Service kind                             : Complete Main
Default                                  : Yes
Forced                                   : Yes

Audio #2
ID                                       : 3
Format                                   : AC-3
Format/Info                              : Audio Coding 3
Codec ID                                 : A_AC3
Duration                                 : 1 h 39 min
Bit rate mode                            : Constant
Bit rate                                 : 192 kb/s
Channel(s)                               : 2 channels
Channel positions                        : Front: L R
Sampling rate                            : 48.0 kHz
Frame rate                               : 31.250 FPS (1536 SPF)
Bit depth                                : 16 bits
Compression mode                         : Lossy
Stream size                              : 137 MiB (2%)
Title                                    : ДЗ - Novy Kanal
Language                                 : Ukrainian
Service kind                             : Complete Main
Default                                  : No
Forced                                   : No

Audio #3
ID                                       : 4
Format                                   : AC-3
Format/Info                              : Audio Coding 3
Codec ID                                 : A_AC3
Duration                                 : 1 h 39 min
Bit rate mode                            : Constant
Bit rate                                 : 640 kb/s
Channel(s)                               : 6 channels
Channel positions                        : Front: L C R, Side: L R, LFE
Sampling rate                            : 48.0 kHz
Frame rate                               : 31.250 FPS (1536 SPF)
Bit depth                                : 16 bits
Compression mode                         : Lossy
Stream size                              : 456 MiB (8%)
Title                                    : Original
Language                                 : English
Service kind                             : Complete Main
Default                                  : No
Forced                                   : No

Text
ID                                       : 5
Format                                   : UTF-8
Codec ID                                 : S_TEXT/UTF8
Codec ID/Info                            : UTF-8 Plain Text
Duration                                 : 1 h 34 min
Bit rate                                 : 45 b/s
Count of elements                        : 990
Stream size                              : 31.3 KiB (0%)
Title                                    : Full
Language                                 : English
Default                                  : Yes
Forced                                   : No

Menu
00:00:00.000                             : :Start
00:09:32.071                             : :"Out of Gas?"
00:15:11.911                             : :Parker's Story
00:20:07.790                             : :"Bloody Mary."
00:25:26.108                             : :Professor Wexler
00:35:10.734                             : :A Little Experiment
00:37:52.020                             : :Inflammatory Rubbish
00:45:32.271                             : :Damon the Healer
00:50:17.264                             : :The Hanging Tree
00:56:40.689                             : :The Library
00:59:36.114                             : :Computer Date
01:09:00.094                             : :Tragic Suicide
01:15:18.723                             : :25Th Anniversary
01:19:33.268                             : :Wexler's Office
01:27:00.048                             : :Criminal Record
01:31:04.668                             : :"I Knew Michelle."
Світлини





Джерело: &
Особиста оцінка: 0 - не дивився


Срібний реліз (на рейтинг впливає 50% завантаженого)
 Трекер:    Зареєстрований   

Завантажити / скачати фільм українською



відео для новачків



 Зареєстрований:   2019-02-28 17:50
 Розмір:   5.46 GB 
 Оцінка фільму:   -/10 (Голосів: 0)
   
Інші релізи
Ваш часовий пояс: GMT + 2 Години

Нова тема   Відповісти