Легенда Г'ю Гласса / The Revenant (2015) 1080p H.265 Ukr/Eng | Sub Ukr/Eng

Нові коментарі

Нова тема   Відповісти
Автор Повідомлення
-Star-Lord- 
VIP


З нами з: 09.08.18
Востаннє: 19.04.19
Повідомлень: 736

2019-02-28 16:34  
Легенда Г'ю Гласса / The Revenant (2015) 1080p H.265 Ukr/Eng | Sub Ukr/Eng

Легенда Г'ю Гласса / The Revenant (2015) 1080p H.265 Ukr/Eng | Sub Ukr/Eng


Країна: США
Жанр: трилер, драма, пригоди, вестерн
Кінокомпанія: 20th Century Fox, Anonymous Content, Appian Way, Monarchy Enterprises S.a.r.l.
Режисер: Алехандро Ґонсалес Іньярріту
Актори: Леонардо ДіКапріо, Том Гарді, Домнал Ґлісон, Вілл Поултер, Пол Андерсон, Лукас Гаас, Бред Картер, Крістофер Йонер

Сюжет:
Мисливець Г'ю Ґласс серйозно поранений на невідомих просторах американського Дикого Заходу. Товариш Г'ю по загону підкорювачів нових земель Джон Фіцжеральд зрадливо залишає його помирати на самоті. Тепер у Ґласса залишилося тільки одна зброя - його сила волі. Він готовий кинути виклик первісній природі, суворій зимі і ворожим племенам індіанців, тільки щоб вижити і помститися Фіцжеральду.

Тривалість: 02:36:19
Якість:
Відео:
кодек: H.265 (HEVC)
розмір кадру: 1920 x 800
бітрейт: 4 937 кб/с
бітова глибина: 10 біт
Увага! Перед завантаженням переконайтесь, що ваш пристрій відтворення (та/або ПЗ) підтримує H.265 (HEVC)

Аудіо # 1:
мова: українська
переклад: професійний дубльований
кодек: AC-3 5.1
бітрейт: 448 кб/с

Аудіо # 2:
мова: англійська
переклад: оригінал
кодек: AC-3 5.1
бітрейт: 640 кб/с

Субтитри # 1:
мова: українська (Forced),
тип: програмні (м'які)
формат: *.srt

Субтитри # 2:
мова: українська (Full),
тип: програмні (м'які)
формат: *.srt

Субтитри # 3:
мова: англійська (Full),
тип: програмні (м'які)
формат: *.srt

Субтитри # 4:
мова: англійська (SDH),
тип: програмні (м'які)
формат: *.srt


Info
Код:
General
Unique ID                                : 8952223782184467173928522197949869780 (0x6BC22B5B4732137C17406F86351EED4)
Complete name                            : F:\Video\The Revenant (2015) 1080p [UKR_ENG] [Hurtom].
Format                                   :
Format version                           : Version 4 / Version 2
File size                                : 6.58 GiB
Duration                                 : 2 h 36 min
Overall bit rate                         : 6 007 kb/s
Movie name                               : The Revenant (2015)
Encoded date                             : UTC 2019-02-28 09:31:51
Writing application                      : v20.0.0 ('I Am The Sun') 64-bit
Writing library                          : libebml v1.3.5 + v1.4.8
Cover                                    : Yes
Attachments                              : Cover.jpg

Video
ID                                       : 1
Format                                   : HEVC
Format/Info                              : High Efficiency Video Coding
Format profile                           : Main [email protected]@Main
Codec ID                                 : V_MPEGH/ISO/HEVC
Duration                                 : 2 h 36 min
Bit rate                                 : 4 937 kb/s
Width                                    : 1 920 pixels
Height                                   : 800 pixels
Display aspect ratio                     : 2.40:1
Frame rate mode                          : Constant
Frame rate                               : 23.976 (24000/1001) FPS
Color space                              : YUV
Chroma subsampling                       : 4:2:0
Bit depth                                : 10 bits
Bits/(Pixel*Frame)                       : 0.134
Stream size                              : 5.39 GiB (82%)
Title                                    : The Revenant (2015)
Default                                  : Yes
Forced                                   : No
Color range                              : Limited
Color primaries                          : BT.709
Transfer characteristics                 : BT.709
Matrix coefficients                      : BT.709

Audio #1
ID                                       : 2
Format                                   : AC-3
Format/Info                              : Audio Coding 3
Codec ID                                 : A_AC3
Duration                                 : 2 h 36 min
Bit rate mode                            : Constant
Bit rate                                 : 448 kb/s
Channel(s)                               : 6 channels
Channel positions                        : Front: L C R, Side: L R, LFE
Sampling rate                            : 48.0 kHz
Frame rate                               : 31.250 FPS (1536 SPF)
Bit depth                                : 16 bits
Compression mode                         : Lossy
Stream size                              : 501 MiB (7%)
Title                                    : ПД - Blu-Ray
Language                                 : Ukrainian
Service kind                             : Complete Main
Default                                  : Yes
Forced                                   : Yes

Audio #2
ID                                       : 3
Format                                   : AC-3
Format/Info                              : Audio Coding 3
Codec ID                                 : A_AC3
Duration                                 : 2 h 36 min
Bit rate mode                            : Constant
Bit rate                                 : 640 kb/s
Channel(s)                               : 6 channels
Channel positions                        : Front: L C R, Side: L R, LFE
Sampling rate                            : 48.0 kHz
Frame rate                               : 31.250 FPS (1536 SPF)
Bit depth                                : 16 bits
Compression mode                         : Lossy
Stream size                              : 716 MiB (11%)
Title                                    : Original
Language                                 : English
Service kind                             : Complete Main
Default                                  : No
Forced                                   : No

Text #1
ID                                       : 4
Format                                   : UTF-8
Codec ID                                 : S_TEXT/UTF8
Codec ID/Info                            : UTF-8 Plain Text
Duration                                 : 2 h 35 min
Bit rate                                 : 5 b/s
Count of elements                        : 146
Stream size                              : 5.76 KiB (0%)
Title                                    : Forced
Language                                 : Ukrainian
Default                                  : Yes
Forced                                   : Yes

Text #2
ID                                       : 5
Format                                   : UTF-8
Codec ID                                 : S_TEXT/UTF8
Codec ID/Info                            : UTF-8 Plain Text
Duration                                 : 2 h 35 min
Bit rate                                 : 38 b/s
Count of elements                        : 846
Stream size                              : 44.5 KiB (0%)
Title                                    : Full
Language                                 : Ukrainian
Default                                  : No
Forced                                   : No

Text #3
ID                                       : 6
Format                                   : UTF-8
Codec ID                                 : S_TEXT/UTF8
Codec ID/Info                            : UTF-8 Plain Text
Duration                                 : 2 h 20 min
Bit rate                                 : 25 b/s
Count of elements                        : 936
Stream size                              : 26.5 KiB (0%)
Title                                    : Full
Language                                 : English
Default                                  : No
Forced                                   : No

Text #4
ID                                       : 7
Format                                   : UTF-8
Codec ID                                 : S_TEXT/UTF8
Codec ID/Info                            : UTF-8 Plain Text
Duration                                 : 2 h 25 min
Bit rate                                 : 30 b/s
Count of elements                        : 1231
Stream size                              : 32.4 KiB (0%)
Title                                    : SDH
Language                                 : English
Default                                  : No
Forced                                   : No

Menu
00:00:00.000                             : en:Chapter 1
00:05:04.846                             : en:Chapter 2
00:07:58.311                             : en:Chapter 3
00:13:18.965                             : en:Chapter 4
00:21:10.686                             : en:Chapter 5
00:28:21.658                             : en:Chapter 6
00:37:07.767                             : en:Chapter 7
00:44:00.346                             : en:Chapter 8
00:48:14.975                             : en:Chapter 9
00:51:42.266                             : en:Chapter 10
00:56:51.033                             : en:Chapter 11
00:59:50.754                             : en:Chapter 12
01:03:31.766                             : en:Chapter 13
01:11:52.433                             : en:Chapter 14
01:16:36.133                             : en:Chapter 15
01:21:22.377                             : en:Chapter 16
01:28:31.139                             : en:Chapter 17
01:37:29.969                             : en:Chapter 18
01:48:44.643                             : en:Chapter 19
01:53:08.782                             : en:Chapter 20
01:59:05.930                             : en:Chapter 21
02:02:56.703                             : en:Chapter 22
02:15:45.262                             : en:Chapter 23
02:22:51.021                             : en:Chapter 24
Світлини





Джерело: &
Особиста оцінка: 9 - давно не бачив настільки якісне кіно


 Трекер:    Зареєстрований   

Завантажити / скачати фільм українською



відео для новачків



 Зареєстрований:   2019-02-28 16:34
 Розмір:   6.58 GB 
 Оцінка фільму:   9.8/10 (Голосів: 8)
   
Інші релізи
   Легенда Г'ю Ґласса / The Revenant (2015) [Open Matte] 1080p H.265 Ukr/Eng | Sub Ukr/Eng -Star-Lord-  3 / 0   8.73 GB   2019-03-03 19:57 
   Легенда Г'ю Ґласса / The Revenant (2015) UHD Remux 4K 2160p HDR H.265 Ukr/Eng | Sub Ukr/Eng Devil_my_cry  6 / 0   45.83 GB   2018-03-25 19:08 
   Легенда Г'ю Ґласса / The Revenant (2015) [Open Matte] 1080p Ukr/Eng | Sub Ukr/Eng Bod_zik99  7 / 0   18.88 GB   2016-11-16 16:32 
   Легенда Г'ю Гласса / The Revenant (2015) AVC BASTERD-94  13 / 0   2.18 GB   2016-11-11 21:30 
   Легенда Г'ю Ґласса / The Revenant (2015) DVD9 / R5 Eng/Rus/Ukr | Sub Eng/Dan/Suo/Nor/Rus/Sve/Est/Hin/Lat/Lit/Ukr Bochys  0 / 0   7.45 GB   2016-07-09 13:04 
   Легенда Г'ю Ґласса / The Revenant (2015) AVC Ukr/Eng | Sub Ukr/Eng Covenant  25 / 0   2.91 GB   2016-04-19 09:31 
   Легенда Г'ю Ґласса / The Revenant (2015) Blu-ray EUR 1080p Multi | Sub Multi smak2001  1 / 0   42.26 GB   2016-04-17 19:10 
   Легенда Г'ю Ґласса / The Revenant (2015) 1080p Ukr/Eng | Sub Ukr/Eng 11FrYkT  11 / 0   13.05 GB   2016-04-17 18:10 
   Легенда Г'ю Ґласса / The Revenant (2015) 720p Ukr/Eng | Sub Ukr/Eng 11FrYkT  15 / 0   7.28 GB   2016-04-17 16:29 
   Легенда Г'ю Ґласса / The Revenant (2015) Ukr/Eng | Sub Ukr/Eng Gelios  19 / 0   2.18 GB   2016-04-17 14:45 
Ваш часовий пояс: GMT + 2 Години

Нова тема   Відповісти