Хлоя: Секс найманка / Chloe (2009) 1080p H.265 Ukr/Eng | Sub Eng

Нові коментарі

Нова тема   Відповісти
Автор Повідомлення
-Star-Lord- 
VIP


З нами з: 09.08.18
Востаннє: 24.04.19
Повідомлень: 737

2019-02-28 16:11  
Хлоя: Секс найманка / Chloe (2009) 1080p H.265 Ukr/Eng | Sub Eng

Хлоя: Секс найманка / Chloe (2009) 1080p H.265 Ukr/Eng | Sub Eng


Жанр: драма, трилер
Країна: США, Канада, Франція
Кінокомпанія: Studio Canal, Montecito Picture Company
Режисер: Атом Егоян
Актори: Джуліана Мур, Лайам Нісон, Аманда Сейфрід, Макс Тіріот, Р.Х. Томсон, Ніна Добрев, Мішу Веллані, Джулі Кхенер, Лора де Картерет, Наталі Лісінська, Тіффані Лінделл-Найт, Меган Хефферн, Тамсен МакДоною, Катрін Крітмаа, Арлін Дункан

Сюжет:
Кетрін - лікар, Девід - професор, у них прекрасний син. На перший погляд, це ідеальна сім'я. Але одного разу Девід запізнюється на літак і пропускає сімейне свято. З цього моменту Кетрін починає підозрювати чоловіка у зраді. Жінка укладає угоду з Хлоєю, яка має спокусити Девіда і надати докладний звіт. Але з часом звіти стають все більш сухими, а зустрічі двох жінок - все частішими...

Тривалість: 01:36:00
Якість:
Відео:
кодек: H.265 (HEVC)
розмір кадру: 1920 x 1080
бітрейт: 9 237 кб/с
бітова глибина: 10 біт
Увага! Перед завантаженням переконайтесь, що ваш пристрій відтворення (та/або ПЗ) підтримує H.265 (HEVC)

Аудіо # 1:
мова: українська
переклад: багатоголосий закадровий
кодек: AC-3 2.0
бітрейт: 192 кб/с

Аудіо # 2:
мова: англійська
переклад: оригінал
кодек: AC-3 5.1
бітрейт: 448 кб/с

Субтитри # 1:
мова: англійська (Full),
тип: програмні (м'які)
формат: *.srt


Info
Код:
General
Unique ID                                : 848876289834115225988189385732860139 (0xA37CD5183EB99284847667462F28EB)
Complete name                            : F:\Video\Chloe (2009) 1080p H.265 [UKR_ENG] [Hurtom].
Format                                   :
Format version                           : Version 4 / Version 2
File size                                : 6.63 GiB
Duration                                 : 1 h 36 min
Overall bit rate                         : 9 846 kb/s
Movie name                               : Chloe (2009)
Encoded date                             : UTC 2019-02-28 07:13:04
Writing application                      : v20.0.0 ('I Am The Sun') 64-bit
Writing library                          : libebml v1.3.5 + v1.4.8
Cover                                    : Yes
Attachments                              : Cover.png

Video
ID                                       : 1
Format                                   : HEVC
Format/Info                              : High Efficiency Video Coding
Format profile                           : Main [email protected]@High
Codec ID                                 : V_MPEGH/ISO/HEVC
Duration                                 : 1 h 36 min
Bit rate                                 : 9 236 kb/s
Width                                    : 1 920 pixels
Height                                   : 1 080 pixels
Display aspect ratio                     : 16:9
Frame rate mode                          : Constant
Frame rate                               : 24.000 FPS
Color space                              : YUV
Chroma subsampling                       : 4:2:0
Bit depth                                : 10 bits
Bits/(Pixel*Frame)                       : 0.186
Stream size                              : 6.19 GiB (93%)
Title                                    : Chloe (2009)
Writing library                          : x265 3.0_Au+3-5b90dc59b57a:[Windows][clang 7.0.1][64 bit] 10bit
Encoding settings                        : cpuid=1049583 / frame-threads=5 / numa-pools=4 / wpp / no-pmode / no-pme / no-psnr / no-ssim / log-level=3 / input-csp=1 / input-res=1920x1080 / interlace=0 / total-frames=0 / level-idc=51 / high-tier=1 / uhd-bd=0 / ref=4 / allow-non-conformance / no-repeat-headers / annexb / no-aud / no-hrd / info / hash=0 / no-temporal-layers / open-gop / min-keyint=23 / keyint=240 / gop-lookahead=0 / bframes=8 / b-adapt=2 / b-pyramid / bframe-bias=0 / rc-lookahead=60 / lookahead-slices=6 / scenecut=40 / radl=0 / no-splice / no-intra-refresh / ctu=64 / min-cu-size=8 / no-rect / no-amp / max-tu-size=32 / tu-inter-depth=1 / tu-intra-depth=1 / limit-tu=0 / rdoq-level=0 / dynamic-rd=0.00 / no-ssim-rd / signhide / no-tskip / nr-intra=0 / nr-inter=0 / no-constrained-intra / no-strong-intra-smoothing / max-merge=2 / limit-refs=3 / no-limit-modes / me=3 / subme=7 / merange=57 / temporal-mvp / weightp / no-weightb / no-analyze-src-pics / deblock=-3:-3 / no-sao / no-sao-non-deblock / rd=3 / no-early-skip / rskip / no-fast-intra / no-tskip-fast / no-cu-lossless / no-b-intra / no-splitrd-skip / rdpenalty=0 / psy-rd=2.00 / psy-rdoq=0.00 / no-rd-refine / no-lossless / cbqpoffs=0 / crqpoffs=0 / rc=crf / crf=19.0 / qcomp=0.60 / qpstep=4 / stats-write=0 / stats-read=0 / vbv-maxrate=50000 / vbv-bufsize=50000 / vbv-init=0.9 / crf-max=30.0 / crf-min=0.0 / ipratio=1.40 / pbratio=1.30 / aq-mode=1 / aq-strength=1.00 / no-cutree / zone-count=0 / no-strict-cbr / qg-size=32 / no-rc-grain / qpmax=69 / qpmin=0 / no-const-vbv / sar=1 / overscan=0 / videoformat=5 / range=0 / colorprim=1 / transfer=1 / colormatrix=1 / chromaloc=0 / display-window=0 / max-cll=0,0 / min-luma=0 / max-luma=1023 / log2-max-poc-lsb=8 / vui-timing-info / vui-hrd-info / slices=1 / no-opt-qp-pps / no-opt-ref-list-length-pps / no-multi-pass-opt-rps / scenecut-bias=0.05 / no-opt-cu-delta-qp / no-aq-motion / no-hdr / no-hdr-opt / no-dhdr10-opt / no-idr-recovery-sei / analysis-reuse-level=5 / scale-factor=0 / refine-intra=0 / refine-inter=0 / refine-mv=0 / refine-ctu-distortion=0 / no-limit-sao / ctu-info=0 / no-lowpass-dct / refine-analysis-type=0 / copy-pic=1 / max-ausize-factor=1.0 / no-dynamic-refine / no-single-sei / hevc-aq / qp-adaptation-range=1.00
Default                                  : Yes
Forced                                   : No
Color range                              : Limited
Color primaries                          : BT.709
Transfer characteristics                 : BT.709
Matrix coefficients                      : BT.709

Audio #1
ID                                       : 2
Format                                   : AC-3
Format/Info                              : Audio Coding 3
Codec ID                                 : A_AC3
Duration                                 : 1 h 36 min
Bit rate mode                            : Constant
Bit rate                                 : 192 kb/s
Channel(s)                               : 2 channels
Channel positions                        : Front: L R
Sampling rate                            : 48.0 kHz
Frame rate                               : 31.250 FPS (1536 SPF)
Bit depth                                : 16 bits
Compression mode                         : Lossy
Stream size                              : 132 MiB (2%)
Title                                    : БЗ - Volia Kino
Language                                 : Ukrainian
Service kind                             : Complete Main
Default                                  : Yes
Forced                                   : No

Audio #2
ID                                       : 3
Format                                   : AC-3
Format/Info                              : Audio Coding 3
Codec ID                                 : A_AC3
Duration                                 : 1 h 36 min
Bit rate mode                            : Constant
Bit rate                                 : 448 kb/s
Channel(s)                               : 6 channels
Channel positions                        : Front: L C R, Side: L R, LFE
Sampling rate                            : 48.0 kHz
Frame rate                               : 31.250 FPS (1536 SPF)
Bit depth                                : 16 bits
Compression mode                         : Lossy
Stream size                              : 309 MiB (5%)
Title                                    : Original
Language                                 : English
Service kind                             : Complete Main
Default                                  : No
Forced                                   : No

Text
ID                                       : 4
Format                                   : UTF-8
Codec ID                                 : S_TEXT/UTF8
Codec ID/Info                            : UTF-8 Plain Text
Duration                                 : 1 h 28 min
Bit rate                                 : 42 b/s
Count of elements                        : 925
Stream size                              : 27.7 KiB (0%)
Title                                    : Full
Language                                 : English
Default                                  : Yes
Forced                                   : No

Menu
00:00:00.000                             : :Chapter 01
00:05:25.365                             : :Chapter 02
00:11:50.667                             : :Chapter 03
00:17:50.568                             : :Chapter 04
00:22:28.305                             : :Chapter 05
00:30:59.190                             : :Chapter 06
00:34:29.525                             : :Chapter 07
00:40:18.416                             : :Chapter 08
00:46:51.974                             : :Chapter 09
00:54:42.737                             : :Chapter 10
01:02:59.983                             : :Chapter 11
01:04:55.016                             : :Chapter 12
01:11:34.247                             : :Chapter 13
01:17:34.983                             : :Chapter 14
01:20:37.582                             : :Chapter 15
01:24:21.972                             : :Chapter 16
Світлини





Джерело: &
Особиста оцінка: 0 - не дивився


 Трекер:    Зареєстрований   

Завантажити / скачати фільм українською



відео для новачків



 Зареєстрований:   2019-02-28 16:11
 Розмір:   6.63 GB 
 Оцінка фільму:   -/10 (Голосів: 0)
   
Інші релізи
   Хлоя: Секс найманка / Chloe (2009) 720p Ukr/Eng | Sub Eng xfsthe  6 / 0   4.63 GB   2012-09-07 20:37 
   Хлоя: Секс найманка / Chloe (2009) Ukr | Sub Eng karvai0  4 / 0   1.33 GB   2012-09-07 14:23 
   Хлоя / Chloe (2009) 720p-mini Ukr/Eng Aradesh  1 / 0   2.2 GB   2010-05-11 17:59 
Ваш часовий пояс: GMT + 2 Години

Нова тема   Відповісти