Ресторан месьє Септіма / Le grand restaurant (1966) Remux 1080p Ukr/Fre | Sub Fre

Нові коментарі

Нова тема   Відповісти
Останній раз роздавалося MakRA (2019-04-20)
Автор Повідомлення
MakRA 
Поважний учасник


З нами з: 11.11.18
Востаннє: 20.04.19
Повідомлень: 174

2019-02-28 13:21  
Ресторан месьє Септіма / Le grand restaurant (1966) Remux 1080p Ukr/Fre | Sub Fre

Ресторан месьє Септіма / Le grand restaurant (1966) Remux 1080p Ukr/Fre | Sub Fre


Альтернативна обкладинка:



Жанр: комедія, пригодницький
Країна: Франція



Кінокомпанія: Gaumont International
Режисер: Жак Беснард [Jacques Besnard]
Актори: Луї де Фюнес [Louis de Funès], Бернар Бліє [Bernard Blier], Марія-Роза Родрігез [Maria-Rosa Rodriguez], Поль Пребуа [Paul Préboist], Венантіно Венантіні [Venantino Venantini], Фолько Люллі [Folco Lulli], Ноель Роквер [Noël Roquevert], Гі Гроссо [Guy Grosso], Мішель Модо [Michel Modo], Моріс Ріш [Maurice Risch], Жак Дінам [Jacques Dynam].

Сюжет: З точки зору працівників ресторану його власник пан Септім просто нестерпний. У нього завжди є підстави для причіпок, якщо немає — він їх придумує. Одного дня під час вечері в його ресторані викрадають президента якоїсь держави. Аби врятувати репутацію свого ресторану і частково з примусу Септім вирішує особисто брати участь в розслідуванні.

Цікаві факти:


-Під рестораном Септіма мається на увазі відомий паризький ресторан Maxim's.
-Будівлею ресторану, показаного у фільмі є ресторан Ледоєн (Ledoyen) на Єлісейських полях.
-Луї де Фюнес також є одним зі співавторів сценарія фільму.


Тривалість: 01:27:07
Якість: Remux 1080p
Відео:
кодек:
розмір кадру: 1920 х 1080
бітрейт: 26.0 Mb/s

Аудіо # 1:
мова: українська
переклад: багатоголосий закадровий [ENTER]
кодек: 2.0
бітрейт: 192 kb/s

Аудіо # 2:
мова: французька
переклад: оригінал
кодек: -MA 2.0
бітрейт: 910 kb/s

Субтитри:
мова: французька
тип: пререндерні
формат: *.pgs
Info
General
Unique ID : 163931159358672787069442003295782536667 (0x7B53FE2C3FF2F38FEE162B5E2E7F85DB)
Complete name : F:\+Фільмографії-Луї Де Фюнес [Louis de Funès]\Le grand restaurant (1966) Remux 1080p UkrFre Sub Fre [Hurtom].
Format :
Format version : Version 4 / Version 2
File size : 16.5 GiB
Duration : 1 h 27 min
Overall bit rate mode : Variable
Overall bit rate : 27.1 Mb/s
Movie name : Ресторан месьє Септіма / Le grand restaurant (1966) Remux 1080p Ukr/Fre | Sub Fre [Hurtom]
Encoded date : UTC 2019-02-28 08:25:00
Writing application : v25.0.0 ('Prog Noir') 64-bit
Writing library : libebml v1.3.6 + v1.4.9

Video
ID : 1
Format : AVC
Format/Info : Advanced Video Codec
Format profile : [email protected]
Format settings, CABAC : Yes
Format settings, RefFrames : 4 frames
Codec ID : V_MPEG4/ISO/AVC
Duration : 1 h 27 min
Bit rate mode : Variable
Bit rate : 26.0 Mb/s
Maximum bit rate : 36.0 Mb/s
Width : 1 920 pixels
Height : 1 080 pixels
Display aspect ratio : 16:9
Frame rate mode : Constant
Frame rate : 24.000 FPS
Color space : YUV
Chroma subsampling : 4:2:0
Bit depth : 8 bits
Scan type : Progressive
Bits/(Pixel*Frame) : 0.522
Stream size : 15.8 GiB (96%)
Title : Le grand restaurant (1966) Remux 1080p Ukr/Fre | Sub Fre [Hurtom]
Language : Ukrainian
Default : Yes
Forced : Yes
Color range : Limited
Color primaries : BT.709
Transfer characteristics : BT.709
Matrix coefficients : BT.709

Audio #1
ID : 2
Format : AC-3
Format/Info : Audio Coding 3
Format settings, Endianness : Big
Codec ID : A_AC3
Duration : 1 h 27 min
Bit rate mode : Constant
Bit rate : 192 kb/s
Channel(s) : 2 channels
Channel positions : Front: L R
Sampling rate : 48.0 kHz
Frame rate : 31.250 FPS (1536 SPF)
Bit depth : 16 bits
Compression mode : Lossy
Stream size : 120 MiB (1%)
Title : MVO [ENTER]
Language : Ukrainian
Service kind : Complete Main
Default : Yes
Forced : Yes

Audio #2
ID : 3
Format :
Format/Info : Digital Theater Systems
Format profile : MA / Core
Mode : 16
Format settings, Endianness : Big
Codec ID : A_DTS
Duration : 1 h 27 min
Bit rate mode : Variable / Constant
Bit rate : 910 kb/s / 768 kb/s
Channel(s) : 2 channels
Channel positions : Front: L R
Sampling rate : 48.0 kHz
Frame rate : 93.750 FPS (512 SPF)
Bit depth : 16 bits
Compression mode : Lossless / Lossy
Stream size : 567 MiB (3%)
Title : Original -HD MA
Language : French
Default : No
Forced : No

Text
ID : 4
Format : PGS
Muxing mode : zlib
Codec ID : S_HDMV/PGS
Codec ID/Info : Picture based subtitle format used on BDs/HD-DVDs
Duration : 1 h 26 min
Bit rate : 29.7 kb/s
Count of elements : 2767
Stream size : 18.4 MiB (0%)
Title : Fre
Language : French
Default : No
Forced : No
Скріншоти
Джерело: &
Подяка п. OlegCena за запис з ТБ і п. voin747 за синхронізацію

Особиста оцінка: 10 - без зайвих вагань рекомендую всім!



Золотий реліз (завантажене не впливає на рейтинг)
 Трекер:    Зареєстрований   

Завантажити / скачати фільм українською



відео для новачків



 Зареєстрований:   2019-02-28 13:21
 Розмір:   16.49 GB 
 Оцінка фільму:   10/10 (Голосів: 4)
   
Інші релізи
Ваш часовий пояс: GMT + 2 Години

Нова тема   Відповісти