Ти колись пробачиш мені? / Чи зможете ви мені пробачити / Can You Ever Forgive Me? (2018) 1080p 2хUkr/Eng | Sub Ukr/Eng

Нові коментарі

Нова тема   Відповісти
Автор Повідомлення
staf777 
Відео Гуртом - підтримка та поширення
Відео Гуртом - підтримка та поширення


З нами з: 16.11.16
Востаннє: 17.11.19
Повідомлень: 3033

2019-02-28 10:26  
Ти колись пробачиш мені? / Чи зможете ви мені пробачити / Can You Ever Forgive Me? (2018) 1080p 2хUkr/Eng | Sub Ukr/Eng

Ти колись пробачиш мені? / Чи зможете ви мені пробачити / Can You Ever Forgive Me? (2018) 1080p 2хUkr/Eng | Sub Ukr/Eng


Жанр: біографічний, драма, комедія, кримінальний
Країна: США



Кінокомпанія: Archer Gray, Fox Searchlight Pictures
Режисер: Марієль Хеллер
Актори: Мелісса МакКарті, Річард Е. Грант, Доллі Уеллс, Бен Фальконе, Джейн Куртін, Стівен Спінелла, Крістіан Наварро, Ерік Ларей Харві

Сюжет:
Фільм розповість про письменницю, яка почала підробляти листи покійних знаменитостей, щоб звести кінці з кінцями.


Тривалість: 01:46:51
Якість: 1080p
Відео:
кодек:
розмір кадру: 1920x800
бітрейт: 4557 кб/с

Аудіо # 1:
мова: українська
переклад: професійний дубльований
кодек: 2.0
бітрейт: 192 кб/с

Аудіо # 2:
мова: українська
переклад: багатоголосий закадровий | DniproFilm
кодек: 5.1
бітрейт: 384 кб/с

Аудіо # 3:
мова: англійська
переклад: оригінал
кодек: 5.1
бітрейт: 384 кб/с

Субтитри: (Forced, Full)
мова: українська
тип: програмні (м'які)
формат: *.srt

Субтитри:
мова: англійська
тип: програмні (м'які)
формат: *.srt
Info
General
Unique ID : 209710860476773255361724116457746481821 (0x9DC4D7B3AFA7D29DC8C023064262429D)
Complete name : S:\» HD українською » Фільми в HD\Драма\Can You Ever Forgive Me (2018) 1080p [2xUKR_ENG] [Hurtom].
Format :
Format version : Version 4
File size : 4.10 GiB
Duration : 1 h 46 min
Overall bit rate : 5 519 kb/s
Movie name : Can You Ever Forgive Me (2018) 1080p [2xUKR_ENG] [Hurtom]
Encoded date : UTC 2019-02-28 08:19:58
Writing application : v30.1.0 ('Forever And More') 64-bit
Writing library : libebml v1.3.6 + v1.4.9
Cover : Yes
Attachments : cover.jpg

Video
ID : 1
Format : AVC
Format/Info : Advanced Video Codec
Format profile : [email protected]
Format settings : CABAC / 5 Ref Frames
Format settings, CABAC : Yes
Format settings, ReFrames : 5 frames
Codec ID : V_MPEG4/ISO/AVC
Duration : 1 h 46 min
Bit rate : 4 557 kb/s
Width : 1 920 pixels
Height : 800 pixels
Display aspect ratio : 2.40:1
Frame rate mode : Constant
Frame rate : 23.976 (24000/1001) FPS
Color space : YUV
Chroma subsampling : 4:2:0
Bit depth : 8 bits
Scan type : Progressive
Bits/(Pixel*Frame) : 0.124
Stream size : 3.39 GiB (83%)
Language : English
Default : Yes
Forced : No
Color range : Limited
Color primaries : BT.709
Transfer characteristics : BT.709
Matrix coefficients : BT.709

Audio #1
ID : 2
Format : AC-3
Format/Info : Audio Coding 3
Commercial name : Dolby Digital
Codec ID : A_AC3
Duration : 1 h 46 min
Bit rate mode : Constant
Bit rate : 192 kb/s
Channel(s) : 2 channels
Channel layout : L R
Sampling rate : 48.0 kHz
Frame rate : 31.250 FPS (1536 SPF)
Bit depth : 16 bits
Compression mode : Lossy
Delay relative to video : -42 ms
Stream size : 146 MiB (3%)
Title : DUB
Language : Ukrainian
Service kind : Complete Main
Default : Yes
Forced : Yes

Audio #2
ID : 3
Format : AC-3
Format/Info : Audio Coding 3
Commercial name : Dolby Digital
Codec ID : A_AC3
Duration : 1 h 46 min
Bit rate mode : Constant
Bit rate : 384 kb/s
Channel(s) : 6 channels
Channel layout : L R C LFE Ls Rs
Sampling rate : 48.0 kHz
Frame rate : 31.250 FPS (1536 SPF)
Bit depth : 16 bits
Compression mode : Lossy
Delay relative to video : -42 ms
Stream size : 292 MiB (7%)
Title : MVO Dniprofilm
Language : Ukrainian
Service kind : Complete Main
Default : No
Forced : No

Audio #3
ID : 4
Format : AC-3
Format/Info : Audio Coding 3
Commercial name : Dolby Digital
Codec ID : A_AC3
Duration : 1 h 46 min
Bit rate mode : Constant
Bit rate : 384 kb/s
Channel(s) : 6 channels
Channel layout : L R C LFE Ls Rs
Sampling rate : 48.0 kHz
Frame rate : 31.250 FPS (1536 SPF)
Bit depth : 16 bits
Compression mode : Lossy
Delay relative to video : -42 ms
Stream size : 292 MiB (7%)
Language : English
Service kind : Complete Main
Default : No
Forced : No

Text #1
ID : 5
Format : UTF-8
Codec ID : S_TEXT/UTF8
Codec ID/Info : UTF-8 Plain Text
Duration : 1 h 42 min
Bit rate : 1 b/s
Count of elements : 27
Stream size : 1.24 KiB (0%)
Title : Forced
Language : Ukrainian
Default : Yes
Forced : Yes

Text #2
ID : 6
Format : UTF-8
Codec ID : S_TEXT/UTF8
Codec ID/Info : UTF-8 Plain Text
Duration : 1 h 45 min
Bit rate : 85 b/s
Count of elements : 1375
Stream size : 66.1 KiB (0%)
Title : Full
Language : Ukrainian
Default : No
Forced : No

Text #3
ID : 7
Format : UTF-8
Codec ID : S_TEXT/UTF8
Codec ID/Info : UTF-8 Plain Text
Duration : 1 h 38 min
Bit rate : 60 b/s
Count of elements : 1507
Stream size : 43.4 KiB (0%)
Title : Full
Language : English
Default : No
Forced : No

Menu
00:00:00.000 : en:Chapter 01
00:05:34.626 : en:Chapter 02
00:11:11.337 : en:Chapter 03
00:16:56.472 : en:Chapter 04
00:23:20.646 : en:Chapter 05
00:26:35.674 : en:Chapter 06
00:31:59.705 : en:Chapter 07
00:37:39.086 : en:Chapter 08
00:42:33.171 : en:Chapter 09
00:46:02.839 : en:Chapter 10
00:49:24.415 : en:Chapter 11
00:55:56.931 : en:Chapter 12
00:58:11.648 : en:Chapter 13
01:01:06.488 : en:Chapter 14
01:03:35.344 : en:Chapter 15
01:07:18.941 : en:Chapter 16
01:12:41.846 : en:Chapter 17
01:16:15.934 : en:Chapter 18
01:21:51.769 : en:Chapter 19
01:24:46.692 : en:Chapter 20
01:26:39.011 : en:Chapter 21
01:30:45.507 : en:Chapter 22
01:36:26.889 : en:Chapter 23
01:38:57.163 : en:Chapter 24
Скріншоти



Підтримати купівлю інших фільмів можна тут.

Подяка пану AngryBirdsUA за доріжку.

Джерело: &
Особиста оцінка: 0 - не дивився



Авторський реліз (завантажувати можна без реєстрації)
 Трекер:    Зареєстрований   

Завантажити / скачати фільм українською



відео для новачків



 Зареєстрований:   2019-02-28 10:26
 Розмір:   4.1 GB 
 Оцінка фільму:   8/10 (Голосів: 7)
   
Ваш часовий пояс: GMT + 2 Години

Нова тема   Відповісти