Ті, що вижили / Hostile (2017) 1080p Ukr/Eng | Sub Eng

Нові коментарі

Нова тема   Відповісти
Автор Повідомлення
staf777 
Відео Гуртом - підтримка та поширення
Відео Гуртом - підтримка та поширення


З нами з: 16.11.16
Востаннє: 18.07.19
Повідомлень: 2667

2019-02-28 10:41  
Ті, що вижили / Hostile (2017) 1080p Ukr/Eng | Sub Eng

Ті, що вижили / Hostile (2017) 1080p Ukr/Eng | Sub Eng


Жанр: драма, жахи
Країна: Франція



Кінокомпанія: Full Time Films, H Films, Title Media
Режисер: Матьє Турі / Mathieu Turi
Актори: Бріттані Ешворт / Brittany Ashworth, Ґреґорі Фетуссі / Grégory Fitoussi, Хав'єр Ботет / Javier Botet, Джей Бенедікт / Jay Benedict, Девід Ґасман / David Gasman, Карл Гаррісон / Carl Garrison, Річард Мейман / Richard Meiman та інші.

Сюжет:
Пережити апокаліпсис – удача або прокляття? Що якщо людям, які залишилися існувати, підготована доля набагато гірша, ніж для тих, хто просто помер. Джулі змогла пережити апокаліпсис – тепер вона майже не зустрічає людей на своєму життєвому шляху. Вона завжди мріяла пережити цей страшний судний день, але не знала, як це буде жахливо. Коли померли всі люди, з'явилося щось інше – ті, що вижили. Джулі не знає, чи живі вони чи ні, із цього світу або з того. Це просто тварюки, які стали господарями на нашій планеті та полюють за уцілілими людьми...


Тривалість: 01:23:14
Якість: 1080p

Відео:
кодек:
розмір кадру: 1920x804
бітрейт: 15,3 Mб/с

Аудіо # 1:
мова: українська
переклад: багатоголосий закадровий | студія Tretyakoff production на замовлення Multi Media Distribution
кодек: 2.0
бітрейт: 192 кб/с

Аудіо # 2:
мова: англійська
переклад: оригінал
кодек: 5.1
бітрейт: 1509 кб/с

Субтитри:
мова: англійська
тип: програмні (м'які)
формат: *.srt
Info
General
Unique ID : 169663091345960749462220987726103203171 (0x7FA3EC3D25F819F47A68E73A1AB24D63)
Complete name : S:\» HD українською » Фільми в HD\Жахи\Hostile (2017) 1080p [UKR_ENG] [Hurtom].
Format :
Format version : Version 4
File size : 9.90 GiB
Duration : 1 h 23 min
Overall bit rate : 17.0 Mb/s
Movie name : Hostile (2017) 1080p [UKR_ENG] [Hurtom]
Encoded date : UTC 2019-02-28 07:28:58
Writing application : v30.1.0 ('Forever And More') 64-bit
Writing library : libebml v1.3.6 + v1.4.9
Cover : Yes
Attachments : cover.jpg

Video
ID : 1
Format : AVC
Format/Info : Advanced Video Codec
Format profile : [email protected]
Format settings : CABAC / 4 Ref Frames
Format settings, CABAC : Yes
Format settings, ReFrames : 4 frames
Codec ID : V_MPEG4/ISO/AVC
Duration : 1 h 23 min
Bit rate : 15.3 Mb/s
Width : 1 920 pixels
Height : 804 pixels
Display aspect ratio : 2.40:1
Frame rate mode : Constant
Frame rate : 23.976 (24000/1001) FPS
Color space : YUV
Chroma subsampling : 4:2:0
Bit depth : 8 bits
Scan type : Progressive
Bits/(Pixel*Frame) : 0.414
Stream size : 8.91 GiB (90%)
Title : Hostile.2017..1080p-ylnian
Writing library : core 155 r2901 7d0ff22
Encoding settings : cabac=1 / ref=4 / deblock=1:-3:-3 / analyse=0x3:0x133 / me=umh / subme=11 / psy=1 / psy_rd=1.05:0.00 / mixed_ref=1 / me_range=64 / chroma_me=1 / trellis=2 / 8x8dct=1 / cqm=0 / deadzone=21,11 / fast_pskip=0 / chroma_qp_offset=-4 / threads=12 / lookahead_threads=2 / sliced_threads=0 / nr=0 / decimate=1 / interlaced=0 / bluray_compat=0 / constrained_intra=0 / bframes=9 / b_pyramid=2 / b_adapt=2 / b_bias=0 / direct=2 / weightb=1 / open_gop=0 / weightp=2 / keyint=250 / keyint_min=23 / scenecut=40 / intra_refresh=0 / rc_lookahead=250 / rc=crf / mbtree=0 / crf=17.1 / qcomp=0.80 / qpmin=0 / qpmax=69 / qpstep=4 / vbv_maxrate=62500 / vbv_bufsize=78125 / crf_max=0.0 / nal_hrd=none / filler=0 / ip_ratio=1.30 / pb_ratio=1.20 / aq=2:0.90
Language : English
Default : Yes
Forced : Yes

Audio #1
ID : 2
Format : AC-3
Format/Info : Audio Coding 3
Commercial name : Dolby Digital
Codec ID : A_AC3
Duration : 1 h 23 min
Bit rate mode : Constant
Bit rate : 192 kb/s
Channel(s) : 2 channels
Channel layout : L R
Sampling rate : 48.0 kHz
Frame rate : 31.250 FPS (1536 SPF)
Bit depth : 16 bits
Compression mode : Lossy
Stream size : 114 MiB (1%)
Title : MVO [Tretyakoff production], 2.0 [stereo] 192 Kbps
Language : Ukrainian
Service kind : Complete Main
Default : Yes
Forced : Yes

Audio #2
ID : 3
Format :
Format/Info : Digital Theater Systems
Codec ID : A_DTS
Duration : 1 h 23 min
Bit rate mode : Constant
Bit rate : 1 509 kb/s
Channel(s) : 6 channels
Channel layout : C L R Ls Rs LFE
Sampling rate : 48.0 kHz
Frame rate : 93.750 FPS (512 SPF)
Bit depth : 24 bits
Compression mode : Lossy
Stream size : 898 MiB (9%)
Language : English
Default : No
Forced : No

Text
ID : 4
Format : UTF-8
Codec ID : S_TEXT/UTF8
Codec ID/Info : UTF-8 Plain Text
Duration : 1 h 19 min
Bit rate : 40 b/s
Count of elements : 975
Stream size : 23.4 KiB (0%)
Language : English
Default : No
Forced : No

Menu
00:00:00.000 : en:Chapter 1
00:07:11.097 : en:Chapter 2
00:15:20.920 : en:Chapter 3
00:23:37.165 : en:Chapter 4
00:28:50.437 : en:Chapter 5
00:37:45.471 : en:Chapter 6
00:42:48.065 : en:Chapter 7
00:51:23.914 : en:Chapter 8
00:57:39.164 : en:Chapter 9
01:04:27.822 : en:Chapter 10
01:10:09.914 : en:Chapter 11
01:19:26.762 : en:Chapter 12

Підтримати купівлю інших фільмів можна тут.

Над доріжкою працювали: AngryBirdsUA, Bohdan237, Sando7
Джерело: &
Особиста оцінка: 0 - не дивився


 Трекер:    Зареєстрований   

Завантажити / скачати фільм українською



відео для новачків



 Зареєстрований:   2019-02-28 10:41
 Розмір:   9.9 GB 
 Оцінка фільму:   6.9/10 (Голосів: 7)
   
Інші релізи
   Ті, що вижили / Hostile (2017) 720p Ukr/Eng | Sub Eng 11FrYkT  0 / 0   4.57 GB   2019-02-27 19:36 
   Ті, що вижили / Hostile (2017) AVC Ukr/Eng | Sub Eng Sando7  5 / 0   1.55 GB   2019-02-27 15:41 
   Ті, що вижили / Hostile (2017) Ukr/Eng drop_plz  0 / 0   1.57 GB   2019-02-26 20:39 
Wensun 
Свій


З нами з: 20.01.09
Востаннє: 18.07.19
Повідомлень: 130

2019-03-04 02:33  
багато очікував... але, постапокаліпсису нема, весь "пост" в перевернутій машині. кіно про любов.... таке. 4/10.
Ваш часовий пояс: GMT + 2 Години

Нова тема   Відповісти