Щелепи / Jaws (1975) Remux 1080p 2xUkr/Eng | Sub Eng

Нові коментарі

Нова тема   Відповісти
Автор Повідомлення
MakRA 
VIP


З нами з: 11.11.18
Востаннє: 19.09.20
Повідомлень: 1114

2019-02-28 00:52  
Щелепи / Jaws (1975) Remux 1080p 2xUkr/Eng | Sub Eng


Український постер:



Жанр: пригодницький, трилер, драма
Країна: США



Кінокомпанія: Zanuck/Brown Productions, Universal Pictures
Режисер: Стівен Спілберґ [Steven Spielberg]
Актори: Рой Шайдер [Roy Scheider], Роберт Шоу [Robert Shaw], Річард Дрейфус [Richard Dreyfuss], Лорреін Ґері [Lorraine Gary], Мюррей Гамілтон [Murray Hamilton], Карл Готліб [Carl Gottlieb], Джеффрі Крамер [Jeffrey Kramer].

Сюжет:
Події картини відбуваються протягом п'яти днів - на острові Еміті, де розташоване невелике курортне містечко. У цьому тихому й сонячному місці відбулися жахливі трагічні події, початок яким було покладено рано вранці, коли шеф місцевої поліції Мартін Броуді та його помічник знаходять на березі залишки тіла дівчини. Вона стала першою жертвою величезної великої білої акули, яка з'явилася біля берегів Еміті ...

Класичний трилер режисера Стівена Спілберга. Екранізація однойменного твору Пітера Бенчлі. Фільм став володарем трьох премій "Оскар". Вважається, що саме цей фільм був вперше названий "блокбастером". На 18 вересня 2018 року фільм займав 233-у позицію у списку "250 найкращих фільмів за версією IMDb.

Основні нагороди та номінації:


Оскар, 1976 рік

Переможець (3):
Кращий звук (Роберт Л. Хойт, Роджер Хімене-мол., Ерл Медер, Джон Р. Картер)
Кращий монтаж (Верна Філдс)
Кращий оригінальний саундтрек (Джон Вільямс)

Номінації (1):
Кращий фільм

Золотий глобус, 1976 рік

Переможець (1):
Кращий саундтрек

Номінації (3):
Найкращий фільм (драма)
Кращий режисер (Стівен Спілберґ / Steven Spielberg)
Найкращий сценарій

Британська академія кіно та телевізійного мистецтва, 1976 рік

Переможець (1):
Премія імені Ентоні Ескуіта за досягнення у створенні музики до фільму

Номінації (6):
Кращий фільм,
Краща чоловіча роль (Річард Дрейфус),
Кращий режисер (Стівен Спілберґ / Steven Spielberg),
Кращий сценарій,
Кращий саундтрек,
Кращий монтаж .

Сатурн, 1976 рік

Переможець (2):
Краща реклама,
Нагорода за Видатний Фільм

Цікаві факти:

-Касові збори в США склали 260 млн дол, в інших країнах 210 600 000 дол.
-На роль Мартіна Броуді пробувався Чарлтон Хестон (Charlton Heston), а на роль Метта Хупера — Джефф Бріджес (Jeff Bridges), Тімоті Боттомс (Timothy Bottoms) і Жан-Мішель Вінсент (Jan-Michael Vincent).
-Пітер Бенчлі, в свою чергу, бажав в картині мати таких акторів, як Роберт Редфорд (Robert Redford), Пол Ньюман (Paul Newman) і Стів Макквін (Steve McQueen).
-У сцені, де акула нападає на клітку з сидячим в ній Хупером, оператори підводних зйомок Рон і Валері Тейлор (Ron & Valerie Taylor) використовували справжню акулу. Але так як жива акула була набагато меншою від механічної, для зйомок збудували дві зменшені клітки. В одну, виконану в масштабі 1:2, був поміщений манекен, в другій, виготовленій в масштабі 5:8, знаходився професійний жокей і каскадер Карл Ріццо (Carl Rizzo) зростом в 4 фути 9 дюймів (приблизно 145 см). У первинному варіанті акула не повинна була ламати клітку, але після того, як справжня риба почала ломитися в клітку і ці рідкісні кадри були зняті, був переписаний сценарій і ці сцени вставлені у фільм.
-В епізодичних ролях знялися Стівен Спілберг (у сцені на пляжі, де він в оркестрі грав на кларнеті) і Пітер Бенчлі (телерепортер, провідний репортаж про акулу на Еміті).
-Після виходу фільму власники деяких пляжів подали до суду, оскільки сильно зменшилася кількість відвідувачів пляжів.
-Початкова сцена фільму була спародіювана самим Спілбергом в комедії "1941" (1979).
-Робоча назва фільму була "Безмовність у воді" (Stillness in the Water).
-Механічну модель акули, зроблену для зйомок фільму, на знімальному майданчику прозвали "Брюс". Ця обставина було використано творцями мультфільму "У пошуках Немо", в якому білу акулу теж звуть Брюсом. Цікаво і те, що за спогадами учасників зйомок фільму механічна акула постійно виходила з ладу; щось подібне відбувається і з білою акулою з "У пошуках Немо".
-Ще одне пряме посилання на "Щелепи" зробили автори фільму "Підводна братва", на початку якого біла акула наспівує знамениту музичну тему з "Щелеп", яка супроводжує кожну атаку хижака.
-Події грудня і листопада 2010 року в Єгипті та Туреччині, пов'язані з нападом на туристів акул, нагадали людям про фільм "Щелепи". Страхи нападу "Білої смерті" відлякали туристів від глибоководних і неспостережуваних пляжів. Мотиви Пітера Бенчлі і екранізована версія "Щелеп" знову починають піднімати глибинні страхи перед мешканцями морів.


Тривалість: 02:03:55
Якість: Remux 1080p
Відео:
кодек:
розмір кадру: 1920 х 1080
бітрейт: 27,5 Мб/с

Аудіо # 1:
мова: українська
переклад: багатоголосий закадровий
кодек: 2.0 (стерео)
бітрейт: 192 kb/s

Аудіо # 2:
мова: українська
переклад: двоголосий закадровий
кодек: 2.0
бітрейт: 192 kb/s
Про озвучення:
Ролі озвучили: Олена Яблучна та один чоловічий голос.

Запис звуку з трансляції телеканалу "1+1" (SAT), 04.11.2007 рік.
Аудіо # 3:
мова: англійська
переклад: оригінал
кодек: -HD MA 7.1
бітрейт: 4894 kb/s

Аудіо # 4:
мова: англійська
переклад: оригінал
кодек: 5.1
бітрейт: 448 kb/s

Субтитри # 1-2: (Full) | (SDH)
мова: англійська
тип: програмні (м'які)
формат: *.srt

Субтитри # 3: (SDH)
мова: англійська
тип: пререндерні
формат: *.pgs

Збережено оригінальні іменовані розділи, як на Blu-ray.
Info
General
Unique ID : 230782607056865970752024825473499677079 (0xAD9F1D04FE8B14C101D0EDB5BA544197)
Complete name : F:\Триллер, жахи\Jaws. Collection Remux 1080p\Jaws (1975) Remux 1080p 2xUkrEng Sub Eng [Hurtom].
Format :
Format version : Version 4
File size : 28.8 GiB
Duration : 2 h 3 min
Overall bit rate mode : Variable
Overall bit rate : 33.2 Mb/s
Movie name : Щелепи / Jaws (1975) Remux 1080p 2xUkr/Eng | Sub Eng [Hurtom]
Encoded date : UTC 2020-04-26 21:56:40
Writing application : v44.0.0 ('Domino') 64-bit
Writing library : libebml v1.3.10 + v1.5.2
Cover : Yes
Attachments : cover.jpg

Video
ID : 1
Format : AVC
Format/Info : Advanced Video Codec
Format profile : [email protected]
Format settings : CABAC / 4 Ref Frames
Format settings, CABAC : Yes
Format settings, Reference fra : 4 frames
Codec ID : V_MPEG4/ISO/AVC
Duration : 2 h 3 min
Bit rate mode : Variable
Bit rate : 27.5 Mb/s
Maximum bit rate : 33.0 Mb/s
Width : 1 920 pixels
Height : 1 080 pixels
Display aspect ratio : 16:9
Frame rate mode : Constant
Frame rate : 23.976 (24000/1001) FPS
Color space : YUV
Chroma subsampling : 4:2:0
Bit depth : 8 bits
Scan type : Progressive
Bits/(Pixel*Frame) : 0.553
Stream size : 23.8 GiB (83%)
Title : Jaws (1975) Remux 1080p 2xUkr/Eng | Sub Eng [Hurtom]
Language : Ukrainian
Default : Yes
Forced : Yes

Audio #1
ID : 2
Format : AC-3
Format/Info : Audio Coding 3
Commercial name : Dolby Digital
Codec ID : A_AC3
Duration : 2 h 3 min
Bit rate mode : Constant
Bit rate : 192 kb/s
Channel(s) : 2 channels
Channel layout : L R
Sampling rate : 48.0 kHz
Frame rate : 31.250 FPS (1536 SPF)
Compression mode : Lossy
Stream size : 170 MiB (1%)
Title : MVO [Volia CINE+] 2.0
Language : Ukrainian
Service kind : Complete Main
Default : Yes
Forced : Yes

Audio #2
ID : 3
Format : AC-3
Format/Info : Audio Coding 3
Commercial name : Dolby Digital
Codec ID : A_AC3
Duration : 2 h 3 min
Bit rate mode : Constant
Bit rate : 192 kb/s
Channel(s) : 2 channels
Channel layout : L R
Sampling rate : 48.0 kHz
Frame rate : 31.250 FPS (1536 SPF)
Compression mode : Lossy
Stream size : 170 MiB (1%)
Title : DVO [1+1] 2.0
Language : Ukrainian
Service kind : Complete Main
Default : No
Forced : No

Audio #3
ID : 4
Format : XLL
Format/Info : Digital Theater Systems
Commercial name : -HD Master Audio
Codec ID : A_DTS
Duration : 2 h 3 min
Bit rate mode : Variable
Bit rate : 4 894 kb/s
Channel(s) : 8 channels
Channel layout : C L R LFE Lb Rb Lss Rss
Sampling rate : 48.0 kHz
Frame rate : 93.750 FPS (512 SPF)
Bit depth : 24 bits
Compression mode : Lossless
Stream size : 4.24 GiB (15%)
Title : Original -HD MA 7.1
Language : English
Default : No
Forced : No

Audio #4
ID : 5
Format : AC-3
Format/Info : Audio Coding 3
Commercial name : Dolby Digital
Codec ID : A_AC3
Duration : 2 h 3 min
Bit rate mode : Constant
Bit rate : 448 kb/s
Channel(s) : 6 channels
Channel layout : L R C LFE Ls Rs
Sampling rate : 48.0 kHz
Frame rate : 31.250 FPS (1536 SPF)
Compression mode : Lossy
Stream size : 397 MiB (1%)
Title : Original 5.1
Language : English
Service kind : Complete Main
Default : No
Forced : No

Text #1
ID : 6
Format : UTF-8
Codec ID : S_TEXT/UTF8
Codec ID/Info : UTF-8 Plain Text
Duration : 2 h 0 min
Bit rate : 51 b/s
Count of elements : 1394
Stream size : 45.5 KiB (0%)
Title : Eng (Full) SRT
Language : English
Default : No
Forced : No

Text #2
ID : 7
Format : UTF-8
Codec ID : S_TEXT/UTF8
Codec ID/Info : UTF-8 Plain Text
Duration : 2 h 2 min
Bit rate : 57 b/s
Count of elements : 1588
Stream size : 51.9 KiB (0%)
Title : Eng (SDH) SRT
Language : English
Default : No
Forced : No

Text #3
ID : 8
Format : PGS
Muxing mode : zlib
Codec ID : S_HDMV/PGS
Codec ID/Info : Picture based subtitle format used on BDs/HD-DVDs
Duration : 2 h 2 min
Bit rate : 39.2 kb/s
Count of elements : 3179
Stream size : 34.4 MiB (0%)
Title : Eng (SDH) PGS
Language : English
Default : No
Forced : No

Menu
00:00:00.000 : en:Main Titles
00:01:50.234 : en:Chrissie's Last Swim
00:07:34.501 : en:A Feast for the Crabs
00:11:20.835 : en:If You Yell Shark...
00:13:35.835 : en:Blood on the Beach
00:18:11.669 : en:The Town Meeting
00:24:29.836 : en:The Shark & Sunday Dinner
00:27:40.836 : en:The Expert
00:32:45.836 : en:The Wrong Shark
00:45:16.503 : en:The Dead of Night
00:53:28.837 : en:July 4Th
01:01:26.371 : en:Predator in the Pond
01:06:08.871 : en:The Shark Hunters
01:20:59.373 : en:Face-to-Face
01:26:21.040 : en:Scars
01:36:19.207 : en:The Chase
01:49:55.207 : en:Hooper Goes In
01:56:41.207 : en:Qunit's Last Stand
01:57:46.707 : en:Brody & the Beast
02:02:29.541 : en:End Titles
02:03:54.475 : en:Chapter 21
Скріншоти
Джерело: &
Подяка за українську доріжку п. robotron005 - зведення, п. ProgBassing - запис з ТБ, за український постер - п. gig_Panas
За доріжку від Volia CINE+ дякую п. -_-B_Е_N_D_E_R-_- та п. Sando7
Особиста оцінка:
10 - без зайвих вагань рекомендую всім!





Золотий реліз (завантажене не впливає на рейтинг)
 Трекер:    Зареєстрований   

Завантажити / скачати фільм українською



відео для новачків



 Зареєстрований:   2020-04-27 02:26
 Розмір:   28.77 GB 
 Оцінка фільму:   9.7/10 (Голосів: 14)
   
Інші релізи
   Щелепи / Jaws (1975) 1080p 2xUkr/Eng | Sub Eng igor911  1 / 0   10.12 GB   2020-05-01 11:49 
   Щелепи / Jaws (1975) AVC 2xUkr/Eng | Sub Eng -_-B_Е_N_D_E_R-_-  2 / 0   2.5 GB   2020-04-26 13:47 
   Щелепи / Jaws (1975) Ukr/Eng robotron005  3 / 0   2.35 GB   2013-09-28 16:52 
[email protected] 
VIP


З нами з: 25.03.17
Востаннє: 13.09.20
Повідомлень: 551

2019-02-28 20:43  
А інші частини будуть у такій же якості?
MakRA 
VIP


З нами з: 11.11.18
Востаннє: 19.09.20
Повідомлень: 1114

2019-02-28 21:30  
[email protected]
Так. Друга завтра буде. А решта на вихідних.

[email protected] 
VIP


З нами з: 25.03.17
Востаннє: 13.09.20
Повідомлень: 551

2019-02-28 22:36  
Супер!!!!!
[email protected] 
VIP


З нами з: 25.03.17
Востаннє: 13.09.20
Повідомлень: 551

2019-03-04 21:51  
Фільм дуже сподобався...
MakRA 
VIP


З нами з: 11.11.18
Востаннє: 19.09.20
Повідомлень: 1114

2020-04-27 02:28  
Реліз оновлено 27.04.2020
Додано доріжку від Воля CINE+, іменовані розділи та оригінальну доріжку 5.1

Ваш часовий пояс: GMT + 2 Години

Нова тема   Відповісти