Ключ від усіх дверей / The Skeleton Key (2005) 1080p H.265 Ukr/Eng | Sub Eng

Нові коментарі

Нова тема   Відповісти
Автор Повідомлення
Anonymous 







2019-02-27 17:12  
Ключ від усіх дверей / The Skeleton Key (2005) 1080p H.265 Ukr/Eng | Sub Eng

Ключ від усіх дверей / The Skeleton Key (2005) 1080p H.265 Ukr/Eng | Sub Eng


Жанр: драма, жахи, детектив, трилер
Країна: США, Німеччина
Кінокомпанія: Universal Pictures, ShadowCatcher Entertainment, Double Feature Films, Daniel Bobker Productions, Brick Dust Productions LLC, MFPV Film
Режисер: Ієн Софтлі / Iain Softley
Актори: Кейт Хадсон / Kate Hudson, Джена Ровлендс / Gena Rowlands, Джон Герт / John Hurt, Пітер Сарсгаард / Peter Sarsgaard, Дої Браянт / Joy Bryant, Максін Барнетт / Maxine Barnett, Фанлоні Р. Харріс / Fahnlohnee R. Harris, Маріон Зінсер / Marion Zinser, Денін Тайлер / Deneen Tyler, Енн Далрімпле / Ann Dalrymple, Трул М. Маркус / Trula M. Marcus, Тоня Статен / Tonya Staten, Томас Ускалі / Thomas Uskali, Джен Апґар / Jen Apgar, Форрест Ландіс / Forrest Landis

Сюжет:
25-річна Керолайн Елліс влаштовується працювати доглядальницею до літнього інваліда Бену Деверо, власника величезного особняка неподалік від Луїзіани. Його дружина Вайолет вручає дівчині універсальний ключ від усіх дверей у будинку.

Одного разу Керолайн виявляє секретну кімнату, розташовану на горищі з масою містичних предметів. Господиня стверджує, що речі належать колишнім власникам, які займалися чорною магією. Незабаром Керолайн стає свідком досить дивних і непояснених подій і вирішує, у що б то не стало, розгадати секрет таємничої кімнати...

Тривалість: 01:43:57
Якість:
Відео:
кодек: H.265 (HEVC)
розмір кадру: 1920 x 812
бітрейт: 4 497 кб/с
бітова глибина: 10 біт
Увага! Перед завантаженням переконайтесь, що ваш пристрій відтворення (та/або ПЗ) підтримує H.265 (HEVC)

Аудіо # 1:
мова: українська
переклад: багатоголосий закадровий
кодек: AC-3 2.0
бітрейт: 192 кб/с

Аудіо # 2:
мова: англійська
переклад: оригінал
кодек: AC-3 5.1
бітрейт: 448 кб/с

Субтитри # 1:
мова: англійська (Full),
тип: програмні (м'які)
формат: *.srt


Info
Код:
General
Unique ID                                : 324332569230625903294606281807498492763 (0xF4002E427EAE63F64C716F1CBDF2BB5B)
Complete name                            : F:\Video\The Skeleton Key (2005) 1080p H.265 [UKR_ENG] [Hurtom].
Format                                   :
Format version                           : Version 4 / Version 2
File size                                : 3.73 GiB
Duration                                 : 1 h 43 min
Overall bit rate                         : 5 140 kb/s
Movie name                               : The Skeleton Key (2005)
Encoded date                             : UTC 2019-02-27 13:58:53
Writing application                      : v20.0.0 ('I Am The Sun') 64-bit
Writing library                          : libebml v1.3.5 + v1.4.8
Cover                                    : Yes
Attachments                              : Cover1.jpg

Video
ID                                       : 1
Format                                   : HEVC
Format/Info                              : High Efficiency Video Coding
Format profile                           : Main [email protected]@High
Codec ID                                 : V_MPEGH/ISO/HEVC
Duration                                 : 1 h 43 min
Bit rate                                 : 4 497 kb/s
Width                                    : 1 920 pixels
Height                                   : 812 pixels
Display aspect ratio                     : 2.35:1
Frame rate mode                          : Constant
Frame rate                               : 23.976 (24000/1001) FPS
Color space                              : YUV
Chroma subsampling                       : 4:2:0
Bit depth                                : 10 bits
Bits/(Pixel*Frame)                       : 0.120
Stream size                              : 3.27 GiB (87%)
Title                                    : The Skeleton Key (2005)
Writing library                          : x265 2.9+9-f74003e88622:[Windows][GCC 8.2.0][64 bit] 10bit
Encoding settings                        : cpuid=1049583 / frame-threads=5 / numa-pools=4 / wpp / no-pmode / no-pme / no-psnr / no-ssim / log-level=3 / input-csp=1 / input-res=1920x812 / interlace=0 / total-frames=0 / level-idc=51 / high-tier=1 / uhd-bd=0 / ref=5 / allow-non-conformance / no-repeat-headers / annexb / no-aud / no-hrd / info / hash=0 / no-temporal-layers / open-gop / min-keyint=23 / keyint=240 / gop-lookahead=0 / bframes=8 / b-adapt=2 / b-pyramid / bframe-bias=0 / rc-lookahead=60 / lookahead-slices=5 / scenecut=40 / radl=0 / no-intra-refresh / ctu=64 / min-cu-size=8 / no-rect / no-amp / max-tu-size=32 / tu-inter-depth=1 / tu-intra-depth=1 / limit-tu=0 / rdoq-level=0 / dynamic-rd=0.00 / no-ssim-rd / signhide / no-tskip / nr-intra=0 / nr-inter=0 / no-constrained-intra / no-strong-intra-smoothing / max-merge=2 / limit-refs=3 / no-limit-modes / me=3 / subme=7 / merange=57 / temporal-mvp / weightp / no-weightb / no-analyze-src-pics / deblock=-3:-3 / no-sao / no-sao-non-deblock / rd=3 / no-early-skip / rskip / no-fast-intra / no-tskip-fast / no-cu-lossless / no-b-intra / no-splitrd-skip / rdpenalty=0 / psy-rd=2.00 / psy-rdoq=0.00 / no-rd-refine / no-lossless / cbqpoffs=0 / crqpoffs=0 / rc=crf / crf=18.0 / qcomp=0.75 / qpstep=4 / stats-write=0 / stats-read=0 / vbv-maxrate=50000 / vbv-bufsize=50000 / vbv-init=0.9 / crf-max=0.0 / crf-min=0.0 / ipratio=1.40 / pbratio=1.30 / aq-mode=1 / aq-strength=1.00 / cutree / zone-count=0 / no-strict-cbr / qg-size=32 / no-rc-grain / qpmax=69 / qpmin=0 / no-const-vbv / sar=1 / overscan=0 / videoformat=5 / range=0 / colorprim=1 / transfer=1 / colormatrix=1 / chromaloc=0 / display-window=0 / max-cll=0,0 / min-luma=0 / max-luma=1023 / log2-max-poc-lsb=8 / vui-timing-info / vui-hrd-info / slices=1 / no-opt-qp-pps / no-opt-ref-list-length-pps / no-multi-pass-opt-rps / scenecut-bias=0.05 / no-opt-cu-delta-qp / no-aq-motion / no-hdr / no-hdr-opt / no-dhdr10-opt / no-idr-recovery-sei / analysis-reuse-level=5 / scale-factor=0 / refine-intra=0 / refine-inter=0 / refine-mv=0 / no-limit-sao / ctu-info=0 / no-lowpass-dct / refine-mv-type=0 / copy-pic=1 / max-ausize-factor=1.0 / no-dynamic-refine / no-single-sei
Default                                  : Yes
Forced                                   : No
Color range                              : Limited
Color primaries                          : BT.709
Transfer characteristics                 : BT.709
Matrix coefficients                      : BT.709

Audio #1
ID                                       : 2
Format                                   : AC-3
Format/Info                              : Audio Coding 3
Codec ID                                 : A_AC3
Duration                                 : 1 h 43 min
Bit rate mode                            : Constant
Bit rate                                 : 192 kb/s
Channel(s)                               : 2 channels
Channel positions                        : Front: L R
Sampling rate                            : 48.0 kHz
Frame rate                               : 31.250 FPS (1536 SPF)
Bit depth                                : 16 bits
Compression mode                         : Lossy
Stream size                              : 143 MiB (4%)
Title                                    : БЗ - Kanal Ukraina
Language                                 : Ukrainian
Service kind                             : Complete Main
Default                                  : Yes
Forced                                   : Yes

Audio #2
ID                                       : 3
Format                                   : AC-3
Format/Info                              : Audio Coding 3
Codec ID                                 : A_AC3
Duration                                 : 1 h 43 min
Bit rate mode                            : Constant
Bit rate                                 : 448 kb/s
Channel(s)                               : 6 channels
Channel positions                        : Front: L C R, Side: L R, LFE
Sampling rate                            : 48.0 kHz
Frame rate                               : 31.250 FPS (1536 SPF)
Bit depth                                : 16 bits
Compression mode                         : Lossy
Stream size                              : 333 MiB (9%)
Title                                    : Original
Language                                 : English
Service kind                             : Complete Main
Default                                  : No
Forced                                   : No

Text
ID                                       : 4
Format                                   : UTF-8
Codec ID                                 : S_TEXT/UTF8
Codec ID/Info                            : UTF-8 Plain Text
Duration                                 : 1 h 38 min
Bit rate                                 : 46 b/s
Count of elements                        : 1157
Stream size                              : 33.9 KiB (0%)
Title                                    : Full
Language                                 : English
Default                                  : Yes
Forced                                   : No

Menu
00:00:00.000                             : en:Passing On
00:04:58.256                             : en:Help Unwanted
00:13:41.487                             : en:Remedies
00:19:30.836                             : en:The Locked Door
00:24:03.483                             : en:Bedside Manner
00:28:20.323                             : en:Asking For Help
00:32:04.547                             : en:Inside The Attic
00:37:29.956                             : en:Broken Record
00:41:48.339                             : en:The Conjure Man
00:48:53.889                             : en:The Power Of Belief
00:55:17.564                             : en:Cleansing
01:00:18.072                             : en:Bad Dreams
01:02:09.767                             : en:A Cause For Concern
01:07:32.131                             : en:Supper
01:14:23.542                             : en:Time To Go
01:18:47.931                             : en:Law Of The Land
01:22:10.926                             : en:Mind Tricks
01:32:43.558                             : en:The Conjure Of Sacrifice
01:35:29.056                             : en:Body And Soul
01:37:29.635                             : en:The Hidden Key (End Titles)
Світлини





Джерело: &
Особиста оцінка: 8 - мені сподобалося


 Трекер:    Зареєстрований   

Завантажити / скачати фільм українською



відео для новачків



 Зареєстрований:   2019-02-27 17:12
 Розмір:   3.73 GB 
 Оцінка фільму:   8.8/10 (Голосів: 4)
   
Ваш часовий пояс: GMT + 2 Години

Нова тема   Відповісти