Ґодзілла / Godzilla (2014) 1080p H.265 Ukr/Eng | Sub Ukr/Eng

Нові коментарі

Нова тема   Відповісти
Автор Повідомлення
-Star-Lord- 
VIP


З нами з: 09.08.18
Востаннє: 26.04.19
Повідомлень: 737

2019-02-27 16:15  
Ґодзілла / Godzilla (2014) 1080p H.265 Ukr/Eng | Sub Ukr/Eng

Ґодзілла / Godzilla (2014) 1080p H.265 Ukr/Eng | Sub Ukr/Eng


Жанр: екшн, фантастика, трилер
Країна: США, Японія
Кінокомпанія: Warner Bros., Legendary Pictures, Disruption Entertainment
Режисер: Ґарет Едвардс / Gareth Edwards
Актори: Аарон Тейлор-Джонсон / Aaron Taylor-Johnson, Елізабет Олсен / Elizabeth Olsen, Браян Кренстон / Bryan Cranston, Віктор Расук / Victor Rasuk, Жульєт Бінош / Juliette Binoche, Саллі Гокінс / Sally Hawkins, Кен Ватанабе / Ken Watanabe, Девід Стретейрн / David Strathairn, С.Дж. Адамс / CJ Adams, Річард Т. Джонс / Richard T. Jones та інші.

Сюжет:
Зло часто з'являється там, де його найменше очікують, але що жахливо – воно може бути надзвичайно небезпечним і сильним. Культовий монстр усіх часів і народів повертається... Людська еволюція завжди сильно впливала не тільки на наш рід, але і на світ, який нас оточує. Коли Форда Броуді і його товаришів десантували на місце бою, хіба міг хлопець припустити, з чим їм належить зіткнутися? Прадавнє створіння, яке не зупиняється ні перед чим, аби відновити рівновагу у природі, яку було порушено завдяки людям...

Тривалість: 02:03:07
Якість:
Відео:
кодек: H.265 (HEVC)
розмір кадру: 1920 x 800
бітрейт: 4 669 кб/с
бітова глибина: 10 біт
Увага! Перед завантаженням переконайтесь, що ваш пристрій відтворення (та/або ПЗ) підтримує H.265 (HEVC)

Аудіо # 1:
мова: українська
переклад: професійний дубльований
кодек: AC-3 5.1
бітрейт: 448 кб/с

Аудіо # 2:
мова: англійська
переклад: оригінал
кодек: AC-3 5.1
бітрейт: 448 кб/с

Субтитри # 1:
мова: українська (Forced),
тип: програмні (м'які)
формат: *.srt

Субтитри # 2:
мова: українська (Full),
тип: програмні (м'які)
формат: *.srt

Субтитри # 3:
мова: англійська (Full),
тип: програмні (м'які)
формат: *.srt

Субтитри # 4:
мова: англійська (SDH),
тип: програмні (м'які)
формат: *.srt

Субтитри # 5:
мова: англійська (SDH-Colored),
тип: програмні (м'які)
формат: *.srt


Info
Код:
General
Unique ID                                : 48040816636464454128672556999917927334 (0x242453219722598CDF475B03E10F7BA6)
Complete name                            : F:\Video\Godzilla (2014) 1080p H.265 [UKR_ENG] [Hurtom].
Format                                   :
Format version                           : Version 4 / Version 2
File size                                : 4.79 GiB
Duration                                 : 2 h 3 min
Overall bit rate                         : 5 567 kb/s
Movie name                               : Godzilla (2014)
Encoded date                             : UTC 2019-02-27 13:01:48
Writing application                      : v20.0.0 ('I Am The Sun') 64-bit
Writing library                          : libebml v1.3.5 + v1.4.8
Cover                                    : Yes
Attachments                              : Cover.jpg

Video
ID                                       : 1
Format                                   : HEVC
Format/Info                              : High Efficiency Video Coding
Format profile                           : Main [email protected]@High
Codec ID                                 : V_MPEGH/ISO/HEVC
Duration                                 : 2 h 3 min
Bit rate                                 : 4 669 kb/s
Width                                    : 1 920 pixels
Height                                   : 800 pixels
Display aspect ratio                     : 2.40:1
Frame rate mode                          : Constant
Frame rate                               : 23.976 (23976/1000) FPS
Original frame rate                      : 23.976 (24000/1001) FPS
Color space                              : YUV
Chroma subsampling                       : 4:2:0
Bit depth                                : 10 bits
Bits/(Pixel*Frame)                       : 0.127
Stream size                              : 4.01 GiB (84%)
Title                                    : Godzilla (2014)
Writing library                          : x265 2.8+74-fd517ae68f93:[Windows][MSVC 1915][64 bit] 10bit
Encoding settings                        : cpuid=1111039 / frame-threads=3 / numa-pools=12 / wpp / no-pmode / no-pme / no-psnr / no-ssim / log-level=2 / input-csp=1 / input-res=1920x800 / interlace=0 / total-frames=43293 / level-idc=41 / high-tier=1 / uhd-bd=0 / ref=5 / no-allow-non-conformance / no-repeat-headers / annexb / no-aud / no-hrd / info / hash=0 / no-temporal-layers / open-gop / min-keyint=23 / keyint=240 / gop-lookahead=0 / bframes=12 / b-adapt=2 / b-pyramid / bframe-bias=0 / rc-lookahead=60 / lookahead-slices=4 / scenecut=40 / radl=0 / no-intra-refresh / ctu=32 / min-cu-size=8 / rect / amp / max-tu-size=32 / tu-inter-depth=4 / tu-intra-depth=4 / limit-tu=1 / rdoq-level=2 / dynamic-rd=0.00 / no-ssim-rd / signhide / no-tskip / nr-intra=0 / nr-inter=0 / no-constrained-intra / no-strong-intra-smoothing / max-merge=4 / limit-refs=2 / limit-modes / me=3 / subme=7 / merange=57 / temporal-mvp / weightp / weightb / no-analyze-src-pics / deblock=-3:-3 / no-sao / no-sao-non-deblock / rd=6 / no-early-skip / no-rskip / no-fast-intra / no-tskip-fast / no-cu-lossless / no-b-intra / no-splitrd-skip / rdpenalty=0 / psy-rd=2.00 / psy-rdoq=1.00 / no-rd-refine / no-lossless / cbqpoffs=0 / crqpoffs=0 / rc=crf / crf=20.0 / qcomp=0.60 / qpstep=4 / stats-write=0 / stats-read=0 / vbv-maxrate=50000 / vbv-bufsize=50000 / vbv-init=0.9 / crf-max=0.0 / crf-min=0.0 / ipratio=1.40 / pbratio=1.30 / aq-mode=1 / aq-strength=0.80 / no-cutree / zone-count=0 / no-strict-cbr / qg-size=32 / no-rc-grain / qpmax=69 / qpmin=0 / no-const-vbv / sar=1 / overscan=0 / videoformat=5 / range=0 / colorprim=2 / transfer=2 / colormatrix=2 / chromaloc=0 / display-window=0 / max-cll=0,0 / min-luma=0 / max-luma=1023 / log2-max-poc-lsb=8 / vui-timing-info / vui-hrd-info / slices=1 / no-opt-qp-pps / no-opt-ref-list-length-pps / no-multi-pass-opt-rps / scenecut-bias=0.05 / no-opt-cu-delta-qp / no-aq-motion / no-hdr / no-hdr-opt / no-dhdr10-opt / no-idr-recovery-sei / analysis-reuse-level=5 / scale-factor=0 / refine-intra=0 / refine-inter=0 / refine-mv=0 / no-limit-sao / ctu-info=0 / no-lowpass-dct / refine-mv-type=0 / copy-pic=1 / max-ausize-factor=1.0 / no-dynamic-refine / no-single-sei
Default                                  : Yes
Forced                                   : No

Audio #1
ID                                       : 2
Format                                   : AC-3
Format/Info                              : Audio Coding 3
Codec ID                                 : A_AC3
Duration                                 : 2 h 3 min
Bit rate mode                            : Constant
Bit rate                                 : 448 kb/s
Channel(s)                               : 6 channels
Channel positions                        : Front: L C R, Side: L R, LFE
Sampling rate                            : 48.0 kHz
Frame rate                               : 31.250 FPS (1536 SPF)
Bit depth                                : 16 bits
Compression mode                         : Lossy
Stream size                              : 395 MiB (8%)
Title                                    : ПД - Blu-Ray
Language                                 : Ukrainian
Service kind                             : Complete Main
Default                                  : Yes
Forced                                   : Yes

Audio #2
ID                                       : 3
Format                                   : AC-3
Format/Info                              : Audio Coding 3
Codec ID                                 : A_AC3
Duration                                 : 2 h 3 min
Bit rate mode                            : Constant
Bit rate                                 : 448 kb/s
Channel(s)                               : 6 channels
Channel positions                        : Front: L C R, Side: L R, LFE
Sampling rate                            : 48.0 kHz
Frame rate                               : 31.250 FPS (1536 SPF)
Bit depth                                : 16 bits
Compression mode                         : Lossy
Stream size                              : 395 MiB (8%)
Title                                    : Original
Language                                 : English
Service kind                             : Complete Main
Default                                  : No
Forced                                   : No

Text #1
ID                                       : 4
Format                                   : UTF-8
Codec ID                                 : S_TEXT/UTF8
Codec ID/Info                            : UTF-8 Plain Text
Duration                                 : 2 h 2 min
Bit rate                                 : 2 b/s
Count of elements                        : 53
Stream size                              : 2.65 KiB (0%)
Title                                    : Forced
Language                                 : Ukrainian
Default                                  : Yes
Forced                                   : Yes

Text #2
ID                                       : 5
Format                                   : UTF-8
Codec ID                                 : S_TEXT/UTF8
Codec ID/Info                            : UTF-8 Plain Text
Duration                                 : 1 h 54 min
Bit rate                                 : 72 b/s
Count of elements                        : 1178
Stream size                              : 61.1 KiB (0%)
Title                                    : Full
Language                                 : Ukrainian
Default                                  : No
Forced                                   : No

Text #3
ID                                       : 6
Format                                   : UTF-8
Codec ID                                 : S_TEXT/UTF8
Codec ID/Info                            : UTF-8 Plain Text
Duration                                 : 1 h 53 min
Bit rate                                 : 41 b/s
Count of elements                        : 1155
Stream size                              : 34.6 KiB (0%)
Title                                    : Full
Language                                 : English
Default                                  : No
Forced                                   : No

Text #4
ID                                       : 7
Format                                   : UTF-8
Codec ID                                 : S_TEXT/UTF8
Codec ID/Info                            : UTF-8 Plain Text
Duration                                 : 2 h 1 min
Bit rate                                 : 46 b/s
Count of elements                        : 1449
Stream size                              : 41.0 KiB (0%)
Title                                    : SDH
Language                                 : English
Default                                  : No
Forced                                   : No

Text #5
ID                                       : 8
Format                                   : UTF-8
Codec ID                                 : S_TEXT/UTF8
Codec ID/Info                            : UTF-8 Plain Text
Duration                                 : 2 h 1 min
Bit rate                                 : 65 b/s
Count of elements                        : 1451
Stream size                              : 57.7 KiB (0%)
Title                                    : SDH-Colored
Language                                 : English
Default                                  : No
Forced                                   : No

Menu
00:00:00.000                             : en:00:00:00.000
00:09:22.562                             : en:00:09:22.562
00:19:03.225                             : en:00:19:03.225
00:30:25.532                             : en:00:30:25.532
00:39:10.098                             : en:00:39:10.098
00:49:43.439                             : en:00:49:43.439
00:59:27.189                             : en:00:59:27.189
01:09:50.186                             : en:01:09:50.186
01:19:11.246                             : en:01:19:11.246
01:29:57.267                             : en:01:29:57.267
01:40:14.759                             : en:01:40:14.759
01:52:14.728                             : en:01:52:14.728
01:56:10.088                             : en:01:56:10.088
Світлини





Джерело: &
Особиста оцінка: 4 - погане кіно


 Трекер:    Зареєстрований   

Завантажити / скачати фільм українською



відео для новачків



 Зареєстрований:   2019-02-27 16:15
 Розмір:   4.79 GB 
 Оцінка фільму:   9/10 (Голосів: 4)
   
Інші релізи
   Ґодзілла / Godzilla (2014) 1080p 3D [Half OverUnder] Ukr/Eng | Sub Ukr/Eng 3d_reliz  1 / 0   10.73 GB   2014-09-29 12:50 
   Ґодзілла / Годзілла / Godzilla (2014) DVD5 Eng/Rus/Ukr | Sub Eng/Rus yurka30  0 / 0   4.34 GB   2014-09-18 00:38 
   Ґодзілла / Godzilla (2014) Blu-ray CEE Multi | Sub Multi smak2001  1 / 0   38.16 GB   2014-09-12 10:55 
   Ґодзілла / Godzilla (2014) 1080p Ukr/Eng | Sub Ukr/Eng 11FrYkT  8 / 0   9.84 GB   2014-09-11 18:10 
   Ґодзілла / Godzilla (2014) AVC Ukr | Sub Ukr/Eng patriot2305  9 / 0   1.94 GB   2014-09-11 13:05 
   Ґодзілла / Godzilla (2014) patriot2305  3 / 0   1.46 GB   2014-09-11 09:24 
   Ґодзілла / Godzilla (2014) 720p Ukr/Eng | Sub Ukr/Eng 11FrYkT  1 / 0   4.98 GB   2014-09-11 07:22 
   Ґодзілла / Godzilla (2014) Ukr/Eng | Sub Ukr/Eng Gelios  4 / 0   2.17 GB   2014-09-11 07:13 
   Ґодзілла / Godzilla (2014) 720p Ukr/Eng | sub Ukr/Eng DеLight  0 / 0   2.9 GB   2014-08-27 16:23 
Ваш часовий пояс: GMT + 2 Години

Нова тема   Відповісти