Електра [Театральна версія] / Elektra [Theatrical Cut] (2005) 1080p H.265 2xUkr/Eng | Sub Eng

Нові коментарі

Нова тема   Відповісти
Автор Повідомлення
-Star-Lord- 
VIP


З нами з: 09.08.18
Востаннє: 18.04.19
Повідомлень: 735

2019-02-27 13:57  
Електра [Театральна версія] / Elektra [Theatrical Cut] (2005) 1080p H.265 2xUkr/Eng | Sub Eng

Електра [Театральна версія] / Elektra [Theatrical Cut] (2005) 1080p H.265 2xUkr/Eng | Sub Eng


Жанр: бойовик, фентезі
Країна: США, Канада
Кінокомпанія: Twentieth Century Fox Film Corporation, Regency Enterprises, Marvel Enterprises
Режисер: Роб Боуман
Актори: Дженіфер Гарнер, Горан Віснжич, Кірстен Праут, Уілл Юн Лі, Колін Каннінгем, Теренс Стемп

Сюжет:
Сюжет фільму оснований на серії коміксів про пригоди грецької найманої вбивці Електри Начіос. Електра одержує завдання прибрати «клієнта» і його дочку. Але натомість вони стають друзями і вирішують разом протистояти замовникам - воїнам-ніндзя з таємного ордена найманих вбивць.

Тривалість: 01:36:44
Якість:
Відео:
кодек: H.265 (HEVC)
розмір кадру: 1920 x 820
бітрейт: 5 003 кб/с
бітова глибина: 10 біт
Увага! Перед завантаженням переконайтесь, що ваш пристрій відтворення (та/або ПЗ) підтримує H.265 (HEVC)

Аудіо # 1:
мова: українська
переклад: багатоголосий закадровий
кодек: AC-3 2.0
бітрейт: 192 кб/с

Аудіо # 2:
мова: українська
переклад: двоголосий закадровий
кодек: AC-3 2.0
бітрейт: 192 кб/с

Аудіо # 3:
мова: англійська
переклад: оригінал
кодек: 5.1
бітрейт: 1510 кб/с

Субтитри # 1:
мова: англійська (Full),
тип: програмні (м'які)
формат: *.srt


Info
Код:
General
Unique ID                                : 200225235088871374083188819981572800437 (0x96A1FA43346A980445C0EDD9A2507FB5)
Complete name                            : F:\Video\Elektra [Theatrical Cut] (2005) 1080p H.265 [2xUKR_ENG] [Hurtom].
Format                                   :
Format version                           : Version 4 / Version 2
File size                                : 4.66 GiB
Duration                                 : 1 h 36 min
Overall bit rate                         : 6 895 kb/s
Movie name                               : Elektra [Theatrical Cut] (2005)
Encoded date                             : UTC 2019-02-26 17:37:15
Writing application                      : v20.0.0 ('I Am The Sun') 64-bit
Writing library                          : libebml v1.3.5 + v1.4.8
Cover                                    : Yes
Attachments                              : Cover.jpg

Video
ID                                       : 1
Format                                   : HEVC
Format/Info                              : High Efficiency Video Coding
Format profile                           : Main [email protected]@Main
Codec ID                                 : V_MPEGH/ISO/HEVC
Duration                                 : 1 h 36 min
Bit rate                                 : 5 003 kb/s
Width                                    : 1 920 pixels
Height                                   : 820 pixels
Display aspect ratio                     : 2.35:1
Frame rate mode                          : Constant
Frame rate                               : 23.976 (24000/1001) FPS
Color space                              : YUV
Chroma subsampling                       : 4:2:0
Bit depth                                : 10 bits
Bits/(Pixel*Frame)                       : 0.133
Stream size                              : 3.38 GiB (72%)
Title                                    : Elektra [Theatrical Cut] (2005)
Default                                  : Yes
Forced                                   : No
Color range                              : Limited
Color primaries                          : BT.709
Transfer characteristics                 : BT.709
Matrix coefficients                      : BT.709

Audio #1
ID                                       : 2
Format                                   : AC-3
Format/Info                              : Audio Coding 3
Codec ID                                 : A_AC3
Duration                                 : 1 h 36 min
Bit rate mode                            : Constant
Bit rate                                 : 192 kb/s
Channel(s)                               : 2 channels
Channel positions                        : Front: L R
Sampling rate                            : 48.0 kHz
Frame rate                               : 31.250 FPS (1536 SPF)
Bit depth                                : 16 bits
Compression mode                         : Lossy
Stream size                              : 133 MiB (3%)
Title                                    : БЗ - ICTV
Language                                 : Ukrainian
Service kind                             : Complete Main
Default                                  : Yes
Forced                                   : Yes

Audio #2
ID                                       : 3
Format                                   : AC-3
Format/Info                              : Audio Coding 3
Codec ID                                 : A_AC3
Duration                                 : 1 h 36 min
Bit rate mode                            : Constant
Bit rate                                 : 192 kb/s
Channel(s)                               : 2 channels
Channel positions                        : Front: L R
Sampling rate                            : 48.0 kHz
Frame rate                               : 31.250 FPS (1536 SPF)
Bit depth                                : 16 bits
Compression mode                         : Lossy
Stream size                              : 133 MiB (3%)
Title                                    : ДЗ - Novy Kanal
Language                                 : Ukrainian
Service kind                             : Complete Main
Default                                  : No
Forced                                   : No

Audio #3
ID                                       : 4
Format                                   :
Format/Info                              : Digital Theater Systems
Codec ID                                 : A_DTS
Duration                                 : 1 h 36 min
Bit rate mode                            : Constant
Bit rate                                 : 1 509 kb/s
Channel(s)                               : 6 channels
Channel positions                        : Front: L C R, Side: L R, LFE
Sampling rate                            : 48.0 kHz
Frame rate                               : 93.750 FPS (512 SPF)
Bit depth                                : 24 bits
Compression mode                         : Lossy
Stream size                              : 1.02 GiB (22%)
Title                                    : Original
Language                                 : English
Default                                  : No
Forced                                   : No

Text
ID                                       : 5
Format                                   : UTF-8
Codec ID                                 : S_TEXT/UTF8
Codec ID/Info                            : UTF-8 Plain Text
Duration                                 : 1 h 35 min
Bit rate                                 : 29 b/s
Count of elements                        : 675
Stream size                              : 20.9 KiB (0%)
Title                                    : Full
Language                                 : English
Default                                  : No
Forced                                   : No

Menu
00:00:00.000                             : en:(01)00:00:00:000
00:02:30.024                             : en:(02)00:02:30:024
00:07:01.212                             : en:(03)00:07:01:212
00:08:11.949                             : en:(04)00:08:11:949
00:11:47.998                             : en:(05)00:11:47:998
00:13:39.109                             : en:(06)00:13:39:109
00:16:42.209                             : en:(07)00:16:42:209
00:20:38.195                             : en:(08)00:20:38:195
00:22:20.255                             : en:(09)00:22:20:255
00:29:01.573                             : en:(10)00:29:01:573
00:32:07.050                             : en:(11)00:32:07:050
00:36:21.220                             : en:(12)00:36:21:220
00:39:17.188                             : en:(13)00:39:17:188
00:44:20.574                             : en:(14)00:44:20:574
00:50:31.278                             : en:(15)00:50:31:278
00:52:12.295                             : en:(16)00:52:12:295
00:54:47.701                             : en:(17)00:54:47:701
01:01:10.166                             : en:(18)01:01:10:166
01:04:24.610                             : en:(19)01:04:24:610
01:09:38.090                             : en:(20)01:09:38:090
01:16:25.539                             : en:(21)01:16:25:539
01:19:18.378                             : en:(22)01:19:18:378
01:22:25.565                             : en:(23)01:22:25:565
01:27:40.672                             : en:(24)01:27:40:672
01:36:49.428                             : en:(25)01:36:49:428
Світлини





Джерело: &
Особиста оцінка: 0 - не дивився


 Трекер:    Зареєстрований   

Завантажити / скачати фільм українською



відео для новачків



 Зареєстрований:   2019-02-27 13:57
 Розмір:   4.66 GB 
 Оцінка фільму:   9/10 (Голосів: 3)
   
Ваш часовий пояс: GMT + 2 Години

Нова тема   Відповісти