Зелена миля / The Green Mile (1999) 1080p H.265 Ukr/Eng | Sub Ukr/Eng

Нові коментарі

Нова тема   Відповісти
Автор Повідомлення
-Star-Lord- 
VIP


З нами з: 09.08.18
Востаннє: 19.04.19
Повідомлень: 736

2019-02-27 13:55  
Зелена миля / The Green Mile (1999) 1080p H.265 Ukr/Eng | Sub Ukr/Eng

Зелена миля / The Green Mile (1999) 1080p H.265 Ukr/Eng | Sub Ukr/Eng


Жанр: кримінальний, драма, фантастика
Країна: США
Кінокомпанія: Castle Rock Entertainment, Darkwoods Productions, Warner Bros. Pictures
Режисер: Френк Дарабонт (Frank Darabont)
Актори: Том Генкс (Tom Hanks), Дейвід Морс (David Morse), Бонні Гант (Bonnie Hunt), Майкл Кларк Дункан (Michael Clarke Duncan), Джеймс Кромвель (James Cromwell), Майкл Джетер (Michael Jeter), Ґрем Ґрін (Graham Greene), Даґ Гатчісон (Doug Hutchison), Сем Роквелл (Sam Rockwell), Баррі Пеппер (Barry Pepper), Джеффрі ДеМанн (Jeffrey DeMunn), Патриція Кларксон (Patricia Clarkson), Гаррі Дін Стентон (Harry Dean Stanton) та інші.

Сюжет:
Пол Еджкомб – у молодості працював у блоці смертників в’язниці «Холодна гора», прозваному «Зелена миля» – за колір підлоги у в’язничному коридорі... Було це в 1934 році, за часів Великої Депресії ... Звинувачений у страшному злочині, Джон Коффі опиняється в блоці смертників. Новий в’язень був дуже величезний на зріст і дуже спокійним, що, втім, ніяк не вплинуло на ставлення до нього начальника блоку – звик до всякого, за роки роботи в «Зеленій милі». Здоровань здивував усіх пізніше, коли з’ясувалося, що він володіє неймовірною магічною силою ...

Саме Джонові Коффі судилося зіграти головну роль у долі усіх героїв цієї історії. Про це, через багато років і згадує, в будинку для людей похилого віку - дідусь Пол Еджкомб.

Тривалість: 03:08:42
Якість:
Відео:
кодек: H.265 (HEVC)
розмір кадру: 1920 x 1040
бітрейт: 4 037 кб/с
бітова глибина: 10 біт
Увага! Перед завантаженням переконайтесь, що ваш пристрій відтворення (та/або ПЗ) підтримує H.265 (HEVC)

Аудіо # 1:
мова: українська
переклад: багатоголосий закадровий ,
кодек: AC-3 2.0
бітрейт: 192 кб/с

Аудіо # 2:
мова: англійська
переклад: оригінал
кодек: 5.1
бітрейт: 945 кб/с

Субтитри # 1:
мова: українська (Full),
тип: програмні (м'які)
формат: *.srt

Субтитри # 2:
мова: англійська (Full),
тип: програмні (м'які)
формат: *.srt


Info
Код:
General
Unique ID                                : 46419756085088052613657305441923509507 (0x22EC1EACE30144EAFDDA341D89BC2D03)
Complete name                            : F:\Video\The Green Mile (1999) 1080p H.265 [UKR_ENG] [Hurtom].
Format                                   :
Format version                           : Version 4 / Version 2
File size                                : 6.82 GiB
Duration                                 : 3 h 8 min
Overall bit rate                         : 5 176 kb/s
Movie name                               : The Green Mile (1999)
Encoded date                             : UTC 2019-02-27 09:56:59
Writing application                      : v20.0.0 ('I Am The Sun') 64-bit
Writing library                          : libebml v1.3.5 + v1.4.8
Cover                                    : Yes
Attachments                              : Cover.jpg

Video
ID                                       : 1
Format                                   : HEVC
Format/Info                              : High Efficiency Video Coding
Format profile                           : Main [email protected]@High
Codec ID                                 : V_MPEGH/ISO/HEVC
Duration                                 : 3 h 8 min
Bit rate                                 : 4 037 kb/s
Width                                    : 1 920 pixels
Height                                   : 1 040 pixels
Display aspect ratio                     : 1.85:1
Frame rate mode                          : Constant
Frame rate                               : 23.976 (24000/1001) FPS
Color space                              : YUV
Chroma subsampling                       : 4:2:0
Bit depth                                : 10 bits
Bits/(Pixel*Frame)                       : 0.084
Stream size                              : 5.32 GiB (78%)
Title                                    : The Green Mile (1999)
Writing library                          : x265 2.9+9-f74003e88622:[Windows][GCC 8.2.0][64 bit] 10bit
Encoding settings                        : cpuid=1049583 / frame-threads=5 / numa-pools=4 / wpp / no-pmode / no-pme / no-psnr / no-ssim / log-level=3 / input-csp=1 / input-res=1920x1040 / interlace=0 / total-frames=0 / level-idc=41 / high-tier=1 / uhd-bd=0 / ref=4 / allow-non-conformance / no-repeat-headers / annexb / no-aud / no-hrd / info / hash=0 / no-temporal-layers / open-gop / min-keyint=24 / keyint=240 / gop-lookahead=0 / bframes=12 / b-adapt=2 / b-pyramid / bframe-bias=0 / rc-lookahead=40 / lookahead-slices=6 / scenecut=40 / radl=0 / no-intra-refresh / ctu=64 / min-cu-size=8 / rect / no-amp / max-tu-size=32 / tu-inter-depth=1 / tu-intra-depth=1 / limit-tu=0 / rdoq-level=0 / dynamic-rd=0.00 / no-ssim-rd / signhide / no-tskip / nr-intra=0 / nr-inter=0 / no-constrained-intra / strong-intra-smoothing / max-merge=2 / limit-refs=3 / no-limit-modes / me=3 / subme=7 / merange=57 / temporal-mvp / weightp / weightb / no-analyze-src-pics / deblock=-3:-3 / no-sao / no-sao-non-deblock / rd=4 / no-early-skip / rskip / no-fast-intra / no-tskip-fast / no-cu-lossless / no-b-intra / no-splitrd-skip / rdpenalty=0 / psy-rd=2.00 / psy-rdoq=0.00 / no-rd-refine / no-lossless / cbqpoffs=0 / crqpoffs=0 / rc=crf / crf=20.0 / qcomp=0.60 / qpstep=4 / stats-write=0 / stats-read=0 / vbv-maxrate=50000 / vbv-bufsize=50000 / vbv-init=0.9 / crf-max=0.0 / crf-min=0.0 / ipratio=1.40 / pbratio=1.30 / aq-mode=1 / aq-strength=1.00 / cutree / zone-count=0 / no-strict-cbr / qg-size=32 / no-rc-grain / qpmax=69 / qpmin=0 / no-const-vbv / sar=1 / overscan=0 / videoformat=5 / range=0 / colorprim=1 / transfer=1 / colormatrix=1 / chromaloc=0 / display-window=0 / max-cll=0,0 / min-luma=0 / max-luma=1023 / log2-max-poc-lsb=8 / vui-timing-info / vui-hrd-info / slices=1 / no-opt-qp-pps / no-opt-ref-list-length-pps / no-multi-pass-opt-rps / scenecut-bias=0.05 / no-opt-cu-delta-qp / no-aq-motion / no-hdr / no-hdr-opt / no-dhdr10-opt / no-idr-recovery-sei / analysis-reuse-level=5 / scale-factor=0 / refine-intra=0 / refine-inter=0 / refine-mv=0 / no-limit-sao / ctu-info=0 / no-lowpass-dct / refine-mv-type=0 / copy-pic=1 / max-ausize-factor=1.0 / no-dynamic-refine / no-single-sei
Language                                 : English
Default                                  : Yes
Forced                                   : No
Color range                              : Limited
Color primaries                          : BT.709
Transfer characteristics                 : BT.709
Matrix coefficients                      : BT.709

Audio #1
ID                                       : 2
Format                                   : AC-3
Format/Info                              : Audio Coding 3
Codec ID                                 : A_AC3
Duration                                 : 3 h 8 min
Bit rate mode                            : Constant
Bit rate                                 : 192 kb/s
Channel(s)                               : 2 channels
Channel positions                        : Front: L R
Sampling rate                            : 48.0 kHz
Frame rate                               : 31.250 FPS (1536 SPF)
Bit depth                                : 16 bits
Compression mode                         : Lossy
Stream size                              : 259 MiB (4%)
Title                                    : БЗ - ICTV, NLO
Language                                 : Ukrainian
Service kind                             : Complete Main
Default                                  : Yes
Forced                                   : Yes

Audio #2
ID                                       : 3
Format                                   :
Format/Info                              : Advanced Audio Codec
Format profile                           : LC
Codec ID                                 : A_AAC-2
Duration                                 : 3 h 8 min
Bit rate                                 : 944 kb/s
Channel(s)                               : 6 channels
Channel positions                        : Front: L C R, Side: L R, LFE
Sampling rate                            : 48.0 kHz
Frame rate                               : 46.875 FPS (1024 SPF)
Compression mode                         : Lossy
Delay relative to video                  : 4 s 700 ms
Stream size                              : 1.24 GiB (18%)
Title                                    : Original
Language                                 : English
Default                                  : No
Forced                                   : No

Text #1
ID                                       : 4
Format                                   : UTF-8
Codec ID                                 : S_TEXT/UTF8
Codec ID/Info                            : UTF-8 Plain Text
Duration                                 : 2 h 58 min
Bit rate                                 : 69 b/s
Count of elements                        : 1565
Stream size                              : 91.5 KiB (0%)
Title                                    : Full
Language                                 : Ukrainian
Default                                  : Yes
Forced                                   : No

Text #2
ID                                       : 5
Format                                   : UTF-8
Codec ID                                 : S_TEXT/UTF8
Codec ID/Info                            : UTF-8 Plain Text
Duration                                 : 2 h 58 min
Bit rate                                 : 40 b/s
Count of elements                        : 1784
Stream size                              : 53.4 KiB (0%)
Title                                    : Full
Language                                 : English
Default                                  : No
Forced                                   : No

Menu
00:00:00.000                             : :Глава 1
00:03:59.739                             : :Глава 2
00:07:41.627                             : :Глава 3
00:10:24.539                             : :Глава 4
00:15:50.407                             : :Глава 5
00:18:16.886                             : :Глава 6
00:21:51.934                             : :Глава 7
00:25:14.261                             : :Глава 8
00:27:10.836                             : :Глава 9
00:30:51.891                             : :Глава 10
00:36:25.891                             : :Глава 11
00:41:33.739                             : :Глава 12
00:43:58.177                             : :Глава 13
00:45:54.918                             : :Глава 14
00:47:47.280                             : :Глава 15
00:51:15.155                             : :Глава 16
00:53:31.958                             : :Глава 17
00:55:14.768                             : :Глава 18
01:00:38.009                             : :Глава 19
01:05:15.202                             : :Глава 20
01:08:24.934                             : :Глава 21
01:14:12.155                             : :Глава 22
01:16:14.110                             : :Глава 23
01:21:47.319                             : :Глава 24
01:24:09.292                             : :Глава 25
01:27:36.501                             : :Глава 26
01:30:37.805                             : :Глава 27
01:33:26.434                             : :Глава 28
01:36:38.707                             : :Глава 29
01:40:09.545                             : :Глава 30
01:44:22.088                             : :Глава 31
01:48:02.225                             : :Глава 32
01:52:39.877                             : :Глава 33
01:55:04.479                             : :Глава 34
01:59:51.684                             : :Глава 35
02:03:49.630                             : :Глава 36
02:05:50.376                             : :Глава 37
02:07:56.710                             : :Глава 38
02:10:52.845                             : :Глава 39
02:14:12.127                             : :Глава 40
02:17:56.933                             : :Глава 41
02:21:22.388                             : :Глава 42
02:25:51.993                             : :Глава 43
02:30:05.370                             : :Глава 44
02:34:26.674                             : :Глава 45
02:36:01.808                             : :Глава 46
02:38:20.156                             : :Глава 47
02:42:07.924                             : :Глава 48
02:44:12.717                             : :Глава 49
02:48:52.413                             : :Глава 50
02:53:01.537                             : :Глава 51
02:55:49.539                             : :Глава 52
03:00:35.031                             : :Глава 53
Світлини





Джерело: &
Особиста оцінка: 10 - без зайвих вагань рекомендую всім!


Срібний реліз (на рейтинг впливає 50% завантаженого)
 Трекер:    Зареєстрований   

Завантажити / скачати фільм українською



відео для новачків



 Зареєстрований:   2019-02-27 13:55
 Розмір:   6.82 GB 
 Оцінка фільму:   10/10 (Голосів: 6)
   
Ваш часовий пояс: GMT + 2 Години

Нова тема   Відповісти