Закон Майло Мерфі / Milo Murphy's Law (Сезон 1) (2016) 1080p Ukr/Eng | sub Eng

Нові коментарі

Нова тема   Відповісти
Автор Повідомлення
sergiyko.5 
Забанено
Забанено


З нами з: 25.02.16
Востаннє: 29.10.20
Повідомлень: 3648

2019-02-27 11:41  


Закон Майло Мерфі / Milo Murphy's Law (Сезон 1) (2016) 1080p Ukr/Eng | sub Eng

Закон Майло Мерфі / Milo Murphy's Law (Сезон 1) (2016) 1080p Ukr/Eng | sub Eng

Жанр: пригоди, комедія
Країна: США
Режисер: Ден Повенмайер, Роберт Еф. Хьюз, Боб Боуен

Сюжет:
Майло Мерфі - це уособлення закону Мерфі: все, що має піти не так, піде не так. Та він готовий до будь-якої халепи, адже хлопцеві в нагоді завжди стають знання, повний рюкзак необхідних матеріалів, оптимізм та натхнення. Тож, Майло здатен будь-яку катастрофу перетворити на пригоду. У цьому йому допомагають друзі Мелісса і Зак. Дивіться надзвичайні пригоди Майло - від зустрічі з інопланетянами до подорожі до центру Землі. І з ними завжди закон Майло Мерфі.




Тривалість: 1 серія: 23:36 (цілком серій: 20 з 20)
Якість:

Відео: кодек: розмір кадру: 1920 х 1080 бітрейт: 5100 кб/с
Аудіо 1: мова: українська переклад: професійний дубльований кодек: 2.0ch бітрейт: 192 кб/с [ Stereo ]
Озвучення:
Аудіо 2: мова: англійська переклад: оригінал кодек: 2.0 бітрейт: 128 кб/с
Субтитри: мова: англійська тип: програмні (м’які) формат: *.srt

Примітка: українська доріжка записана з супутникової трансляції телеканала ПлюсПлюс і синхронізована під HD відео.
Серія 12 у 720p, коли з'явиться у 1080p, буде замінена.
Перелік серій:
01 Разом із СуперМайло-Підземники / Going the Extra Milo-The Undergrounders
02 Вболіваючи за суперників-Сонячна сторона/Rooting for the Enemy-Sunny Side Up
03 Файли доктора Зона-Довідка /The Doctor Zone Files-The Note
04 Небезпечна вечірка-Вечір в опері / Party of Peril-Smooth Opera tor
05 Worked Day-Wilder West
06 Family Vacation-Murphys Lard
07 Secrets and Pies-Athledecamathalon
08 The Substitute-Time Out
09 Were Going to the Zoo-School Dance
10 Battle of the Bands-The Math Book
11 Машинка, що не змогла / Випадок з ламами
12 Missing Milo
13 У гонитві за "зіркою" / Катастрофа з моїх снів
14 A Clockwork Origin-Perchance to Sleepwalk
15 Some Like It Yacht-Backward to School Night
16 World Without Milo-The Race
17 Love Toboggan-The Island of Lost Dakotas
18 Fungus Among Us
19 Milos Halloween Scream-a-Torium
20 A Christmas Peril
Про файл:
General
Unique ID : 277867997576017133904085299340416768662 (0xD10B6E0198A50FDCFF64A2CB085DDA96)
Complete name : G:\Torrents2\MULT\MuSERIAL\Milo Murphy's Law S01 1080p \S01E01.Going the Extra Milo-The Undergrounders.1080p..
Format :
Format version : Version 4
File size : 859 MiB
Duration : 22 min 10 s
Overall bit rate : 5 415 kb/s
Movie name : Milo Murphy's Law S01 1080p by sergiyko
Encoded date : UTC 2019-02-27 08:27:30
Writing application : v30.0.0 ('Interstellar') 64-bit
Writing library : libebml v1.3.6 + v1.4.9

Video
ID : 1
Format : AVC
Format/Info : Advanced Video Codec
Format profile : [email protected]
Format settings : CABAC / 4 Ref Frames
Format settings, CABAC : Yes
Format settings, ReFrames : 4 frames
Codec ID : V_MPEG4/ISO/AVC
Duration : 22 min 10 s
Bit rate : 5 095 kb/s
Width : 1 920 pixels
Height : 1 080 pixels
Display aspect ratio : 16:9
Frame rate mode : Constant
Frame rate : 23.976 (23976/1000) FPS
Color space : YUV
Chroma subsampling : 4:2:0
Bit depth : 8 bits
Scan type : Progressive
Bits/(Pixel*Frame) : 0.102
Stream size : 808 MiB (94%)
Title : S01E01.Going the Extra Milo-The Undergrounders
Language : English
Default : Yes
Forced : No
Color range : Limited
Color primaries : BT.709
Transfer characteristics : BT.709
Matrix coefficients : BT.709

Audio #1
ID : 2
Format : AC-3
Format/Info : Audio Coding 3
Commercial name : Dolby Digital
Codec ID : A_AC3
Duration : 22 min 10 s
Bit rate mode : Constant
Bit rate : 192 kb/s
Channel(s) : 2 channels
Channel layout : L R
Sampling rate : 48.0 kHz
Frame rate : 31.250 FPS (1536 SPF)
Bit depth : 16 bits
Compression mode : Lossy
Stream size : 30.4 MiB (4%)
Title : DUB 2ch | ПлюсПлюс
Language : Ukrainian
Service kind : Complete Main
Default : Yes
Forced : Yes

Audio #2
ID : 3
Format : LC
Format/Info : Advanced Audio Codec Low Complexity
Codec ID : A_AAC-2
Duration : 22 min 10 s
Bit rate : 126 kb/s
Channel(s) : 2 channels
Channel layout : L R
Sampling rate : 48.0 kHz
Frame rate : 46.875 FPS (1024 SPF)
Compression mode : Lossy
Stream size : 19.9 MiB (2%)
Title : Original
Language : English
Default : No
Forced : No

Text
ID : 4
Format : UTF-8
Codec ID : S_TEXT/UTF8
Codec ID/Info : UTF-8 Plain Text
Duration : 22 min 6 s
Bit rate : 131 b/s
Count of elements : 465
Stream size : 21.3 KiB (0%)
Language : English
Default : No
Forced : No
Скріншоти:



Запис/зведення: sergiyko


Бронзовий реліз (на рейтинг впливає 75% завантаженого)
 Трекер:    Зареєстрований   

Завантажити / скачати мультфільм українською



відео для новачків



 Зареєстрований:   2019-09-18 19:14
 Розмір:   15.58 GB 
 Оцінка мультсеріалу:   9.9/10 (Голосів: 13)
   
sergiyko.5 
Забанено
Забанено


З нами з: 25.02.16
Востаннє: 29.10.20
Повідомлень: 3648

2019-03-21 19:52  
Додав всі серії. Приємного перегляду!
sergiyko.5 
Забанено
Забанено


З нами з: 25.02.16
Востаннє: 29.10.20
Повідомлень: 3648

2019-09-18 19:16  
Торент оновлено 12 серія замінена на 1080p.
Ваш часовий пояс: GMT + 2 Години

Нова тема   Відповісти