Зелена Книга / Green Book (2018) 720p Ukr/Eng | Sub Ukr/Eng

Нові коментарі

Нова тема   Відповісти
Автор Повідомлення
Anonymous 







2019-02-27 10:09  
Зелена Книга / Green Book (2018) 720p Ukr/Eng | Sub Ukr/Eng


Зелена Книга / Green Book (2018) 720p Ukr/Eng | Sub Ukr/Eng


Жанр: біографічний, драма, комедія
Країна: США

3 Оскара, 3 Золотих глобуса, премія Британської кіноакадемії
Основні нагороди - детальніше:


Оскар, 2019 рік
Переможець (3):
Найкращий фільм
Найкраща другорядна чоловіча роль (Магершала Алі)
Найкращий сценарій



Золотий глобус, 2019 рік
Переможець (3):
Найкращий фільм (комедія чи мюзикл)
Найкраща другорядна чоловіча роль (Магершала Алі)
Найкращий сценарій



Британська академія (BAFTA), 2019 рік
Переможець (1):
Найкраща другорядна чоловіча роль (Магершала Алі)


Кінокомпанія: Participant Media, DreamWorks, Amblin Partners, Innisfree Pictures, Wessler Entertainment
Режисер: Пітер Фареллі / Peter Farrelly
Актори: Вігго Мортенсен / Viggo Mortensen, Магершала Алі / Mahershala Ali, Лінда Карделліні / Linda Cardellini, Себастьян Маніскалко / Sebastian Maniscalco, Дімітар Марінов / Dimiter D. Marinov, Пі Джей Бірн / P.J. Byrne, Нік Валлелонга / Nick Vallelonga та інші

Сюжет:
Історія, заснована на реальній дружбі. У 1962 році простого викидайла італійського походження Тоні Ліпа (Вігго Мортенсен) наймають водієм на час туру одного з найкращих піаністів світу, афроамериканського джазового піаніста Дона Ширлі (Магершала Алі), півднем США, де панують расистські погляди. Дорогою вони користуються "Зеленою книгою, що містить інформацію про безпечні місця для кольорових. Ця подорож відкриє очі двом різним героям на світ та змінить їх життя.
Офіційний український трейлер:

Рейтинг MPAA: PG-13 - дітям до 13 років перегляд не бажаний
Вікова категорія: 12+

Тривалість: 02:10:04
Якість: 720p [HDChina]

Відео:
кодек:
розмір кадру: 1280х640
бітрейт: 7000 кб/с

Аудіо # 1:
мова: українська
переклад: професійний дубльований | студія Pie Post Production
кодек: 2.0 (стерео)
бітрейт: 192 кб/с
примітка: присутні декілька неозвучених реплік італійською, на них є форсовані субтитри >>> завантажити окремо

Аудіо # 2:
мова: англійська
переклад: оригінал
кодек: 5.1
бітрейт: 448 кб/с

Субтитри # 0 (окремо): >>> завантажити <<<
мова: українська (форсовані на неозвучені репліки італійською та написи)
тип: програмні (м'які)
формат:
примітка: ці субтитри мають підключитись автоматично, якщо завантажити їх в одну теку з файлом релізу
переклад: uafilm.tv

Субтитри # 1:
мова: українська
тип: програмні (м'які)
формат: *.srt
переклад з оригіналу: kinovar

Субтитри # 2-3:
мова: англійська (повні, SDH)
тип: програмні (м'які)
формат: *.srt

Субтитри # 4:
мова: англійська (форсовані, на декілька реплік італійською)
тип: вбудовані (жорсткі)

Збережено оригінальні розділи, як на Bly-ray
Info та log
Код:

Complete name               : Green Book (2018) [Ukr,Eng sub.Ukr,Eng] 720p [Hurtom].
Format                      :
Format version              : Version 4
File size                   : 6.94 GiB
Duration                    : 2 h 10 min
Overall bit rate            : 7 641 kb/s
Movie name                  : Зелена Книга / Green Book (2018) [Ukr,Eng sub.Ukr,Eng] 720p [Hurtom]
Encoded date                : UTC 2019-03-06 14:31:38
Writing application         : v31.0.0 ('Dolores In A Shoestand') 64-bit
Writing library             : libebml v1.3.6 + v1.4.9
Cover                       : Yes
Attachments                 : cover.jpg

Video
ID                          : 1
Format                      : AVC
Format/Info                 : Advanced Video Codec
Format profile              : [email protected]
Format settings             : CABAC / 10 Ref Frames
Format settings, CABAC      : Yes
Format settings, ReFrames   : 10 frames
Codec ID                    : V_MPEG4/ISO/AVC
Duration                    : 2 h 10 min
Bit rate                    : 7 000 kb/s
Width                       : 1 280 pixels
Height                      : 640 pixels
Display aspect ratio        : 2.000
Frame rate mode             : Constant
Frame rate                  : 23.976 (24000/1001) FPS
Color space                 : YUV
Chroma subsampling          : 4:2:0
Bit depth                   : 8 bits
Scan type                   : Progressive
Bits/(Pixel*Frame)          : 0.356
Stream size                 : 6.36 GiB (92%)
Title                       : Зелена Книга / Green Book (2018) 720p [HDChina]
Writing library             : core 148 r2665kMod a01e339
Encoding settings           : cabac=1 / ref=10 / deblock=1:-3:-3 / analyse=0x3:0x133 / me=umh / subme=11 / psy=1 / fade_compensate=0.00 / psy_rd=1.05:0.00 / mixed_ref=1 / me_range=32 / chroma_me=1 / trellis=2 / 8x8dct=1 / cqm=0 / deadzone=21,11 / fast_pskip=0 / chroma_qp_offset=-2 / threads=20 / lookahead_threads=3 / sliced_threads=0 / nr=0 / decimate=0 / interlaced=0 / bluray_compat=0 / constrained_intra=0 / fgo=0 / bframes=8 / b_pyramid=2 / b_adapt=2 / b_bias=0 / direct=3 / weightb=1 / open_gop=0 / weightp=2 / keyint=240 / keyint_min=24 / scenecut=40 / intra_refresh=0 / rc=2pass / mbtree=0 / bitrate=7000 / ratetol=1.0 / qcomp=0.70 / qpmin=0 / qpmax=69 / qpstep=4 / cplxblur=20.0 / qblur=0.5 / ip_ratio=1.20 / pb_ratio=1.20 / aq=3:0.85
Language                    : English
Default                     : Yes
Forced                      : No

Audio #1
ID                          : 2
Format                      : AC-3
Format/Info                 : Audio Coding 3
Commercial name             : Dolby Digital
Codec ID                    : A_AC3
Duration                    : 2 h 10 min
Bit rate mode               : Constant
Bit rate                    : 192 kb/s
Channel(s)                  : 2 channels
Channel layout              : L R
Sampling rate               : 48.0 kHz
Frame rate                  : 31.250 FPS (1536 SPF)
Bit depth                   : 16 bits
Compression mode            : Lossy
Stream size                 : 179 MiB (3%)
Title                       : Dub, 2.0 [stereo] 192 Kbps
Language                    : Ukrainian
Service kind                : Complete Main
Default                     : Yes
Forced                      : No

Audio #2
ID                          : 3
Format                      : AC-3
Format/Info                 : Audio Coding 3
Commercial name             : Dolby Digital
Codec ID                    : A_AC3
Duration                    : 2 h 10 min
Bit rate mode               : Constant
Bit rate                    : 448 kb/s
Channel(s)                  : 6 channels
Channel layout              : L R C LFE Ls Rs
Sampling rate               : 48.0 kHz
Frame rate                  : 31.250 FPS (1536 SPF)
Bit depth                   : 16 bits
Compression mode            : Lossy
Stream size                 : 417 MiB (6%)
Title                       : Original, 5.1 448 Kbps
Language                    : English
Service kind                : Complete Main
Default                     : No
Forced                      : No

Text #1
ID                          : 4
Format                      : UTF-8
Codec ID                    : S_TEXT/UTF8
Codec ID/Info               : UTF-8 Plain Text
Duration                    : 2 h 1 min
Bit rate                    : 96 b/s
Count of elements           : 1515
Stream size                 : 85.7 KiB (0%)
Title                       : Ukr full [Hurtom - kinovar]
Language                    : Ukrainian
Default                     : No
Forced                      : No

Text #2
ID                          : 5
Format                      : UTF-8
Codec ID                    : S_TEXT/UTF8
Codec ID/Info               : UTF-8 Plain Text
Duration                    : 2 h 1 min
Bit rate                    : 62 b/s
Count of elements           : 1734
Stream size                 : 55.8 KiB (0%)
Title                       : Eng full
Language                    : English
Default                     : No
Forced                      : No

Text #3
ID                          : 6
Format                      : UTF-8
Codec ID                    : S_TEXT/UTF8
Codec ID/Info               : UTF-8 Plain Text
Duration                    : 2 h 7 min
Bit rate                    : 65 b/s
Count of elements           : 1968
Stream size                 : 61.4 KiB (0%)
Title                       : Eng SDH
Language                    : English
Default                     : No
Forced                      : No

Menu
00:00:00.000                : en:00:00:00.000
00:05:43.009                : en:00:05:43.009
00:11:50.043                : en:00:11:50.043
00:18:17.805                : en:00:18:17.805
00:23:46.675                : en:00:23:46.675
00:28:37.382                : en:00:28:37.382
00:34:38.785                : en:00:34:38.785
00:41:13.304                : en:00:41:13.304
00:46:44.593                : en:00:46:44.593
00:54:19.173                : en:00:54:19.173
01:02:42.342                : en:01:02:42.342
01:10:42.655                : en:01:10:42.655
01:16:16.155                : en:01:16:16.155
01:24:30.274                : en:01:24:30.274
01:30:37.724                : en:01:30:37.724
01:36:53.266                : en:01:36:53.266
01:44:56.081                : en:01:44:56.081
01:51:12.124                : en:01:51:12.124
01:54:38.872                : en:01:54:38.872
02:02:25.505                : en:02:02:25.505

Код:
[info]: frame I:1578 Avg QP:14.31 size:144855
[info]: frame P:37352 Avg QP:15.87 size: 66302
[info]: frame B: 148197 Avg QP: 16.81 size: 27817

SOURCE: LEGiT REGiON A RETAiL BLU-RAY
Оригінал <---------->Цей ріп





Підтримати купівлю інших фільмів можна тут.

Подяка AngryBirdsUA за доріжку.

Джерело: &

06.03.2019 реліз оновлено - додано український дубляж


Золотий реліз (завантажене не впливає на рейтинг)
 Трекер:    Зареєстрований   

Завантажити / скачати фільм українською



відео для новачків



 Зареєстрований:   2019-03-06 16:37
 Розмір:   6.94 GB 
 Оцінка фільму:   9.4/10 (Голосів: 67)
 ЗАЛИШАЙТЕСЬ ЯКОМОГА ДОВШЕ НА РОЗДАЧІ! ЗАВАНТАЖИВ САМ - ДАЙ ЗАВАНТАЖИТИ ІНШИМ!
   
Інші релізи
   Зелена Книга / Green Book (2018) 1080p H.265 Ukr/Eng | Sub Ukr/Eng -Star-Lord-  34 / 0   7.19 GB   2019-03-10 22:54 
   Зелена Книга / Green Book (2018) Ukr/Eng | Sub Ukr/Eng igor911  112 / 1   2.36 GB   2019-03-06 21:43 
   Зелена Книга / Green Book (2018) uafilm.tv  63 / 0   1.46 GB   2019-03-06 21:13 
   Зелена Книга / Green Book (2018) 1080p Ukr/Eng | Sub Ukr/Eng igor911  93 / 2   16.09 GB   2019-03-06 19:51 
   Зелена Книга / Green Book (2018) Remux 1080p Ukr/Eng | Sub Ukr/Eng staf777  31 / 1   30.66 GB   2019-03-06 18:39 
   Зелена Книга / Green Book (2018) AVC Ukr/Eng | Sub Ukr/Eng 11FrYkT  182 / 0   2.35 GB   2019-03-06 16:25 
   Зелена Книга / Green Book (2018) Eng | sub Ukr kinovar  28 / 0   1.42 GB   2019-02-06 09:00 
Koful 
VIP


З нами з: 05.12.16
Востаннє: 18.03.19
Повідомлень: 256

2019-02-27 11:58  
Дивно що й досі нема української доріжки, наче в наших кінотеатрах і не йшов.
leicheman 
Відео Гуртом - підтримка та поширення
Відео Гуртом - підтримка та поширення


З нами з: 03.07.14
Востаннє: 19.03.19
Повідомлень: 3429

2019-02-27 13:22  
Koful написано:
Дивно що й досі нема української доріжки, наче в наших кінотеатрах і не йшов.

його й досі, ще показують у кіно.

molfar homa 
Новенький


З нами з: 30.07.17
Востаннє: 18.03.19
Повідомлень: 2

2019-02-28 19:46  
Це мій перший коментар! І цим сказано абсолютно все. "Шедевральна" картина, рекомендую для перегляду і саме в цьому форматі, тобто мовою оригіналу. Величезне дякую.
W3223W 
Новенький


З нами з: 07.11.18
Востаннє: 17.03.19
Повідомлень: 4

2019-03-02 12:36  
Дуже дякую за фільм.
alonzo 
Поважний учасник


З нами з: 30.08.15
Востаннє: 18.03.19
Повідомлень: 244

2019-03-03 14:36  
molfar homa написано:
Це мій перший коментар! І цим сказано абсолютно все.

кумедно виглядає - навідь сімпсонів згадав (серія про лимонне дерево , фраза Мілгауза(хто переглядав неодноразово той згадає) ), не в образу дописувачу molfar homa - просто кумедно вийшло .

11FrYkT 
Модератор відео


З нами з: 20.02.11
Востаннє: 18.03.19
Повідомлень: 5709

2019-03-06 10:46  
при появі доріжки зроблю авц
Anonymous 







2019-03-06 16:37  
Реліз оновлено - додано український дубляж
Anonymous 







2019-03-06 23:38  
Виявилось, що в дубляжі присутні непродубльовані репліки італійською. Ось на них та написи є форсовані субтитри: завантажити окремо

Додано через 3 хвилини 13 секунд:

Саби "підтягнуться" автоматично, якщо завантажити їх в одну теку з файлом релізу.

waldi-hurtom 
VIP


З нами з: 07.10.12
Востаннє: 16.03.19
Повідомлень: 932

2019-03-08 20:04  
Реалізм принесено в жертву заради популярності на кожній стадії - оповідач, його син-сценаріст, режисер, тож це скоріше легка комедія. Може, це і на краще - просто відпочити та посміятися. Гарна музика, багато жартів, кумедні ситуації. Переклад досить далекій від оригіналу, але дотепний. Фільм для відпочинку, краще вдвох. Деякі діалоги випадають з початку 60-х і відгонюють сучасним дебілізмом - усе заради успіху картини, зрозуміло. 8 з 10.
bogdanich 
VIP


З нами з: 24.10.13
Востаннє: 19.03.19
Повідомлень: 548

2019-03-08 23:52  
Чудова стрічка! Варта здобутих нагород. Я отримав насолоду від перегляду та добре відпочив.
10/10.
Дякую!

patola 
Новенький


З нами з: 21.10.12
Востаннє: 10.03.19
Повідомлень: 2

2019-03-10 21:34  
Хороший фільм.
mik[email protected] 
Новенький


З нами з: 30.04.17
Востаннє: 18.03.19
Повідомлень: 2

2019-03-11 02:23  
подивився з задоволенням!
SCSNAz 
Новенький


З нами з: 23.11.09
Востаннє: 18.03.19
Повідомлень: 16

2019-03-15 20:20  
дуже хороший фільм!
Vinny_jones 
Новенький


З нами з: 21.06.12
Востаннє: 17.03.19
Повідомлень: 17

2019-03-17 12:26  
Класне кінцо
пан Струмок 
Поважний учасник


З нами з: 19.02.13
Востаннє: 17.03.19
Повідомлень: 194

2019-03-17 18:08  
Хіба перебути вечір, навіть не 1+1,якнамене 7з10
Ваш часовий пояс: GMT + 2 Години

Нова тема   Відповісти