Чудотворці (Сезон 1, серії 1-4) / Miracle Workers (Season 1, episodes 1-4) (2019) 720p Ukr/Eng | Sub Eng

Нові коментарі

Нова тема   Відповісти
Автор Повідомлення
Anonymous 







2019-02-26 18:35  
Чудотворці (Сезон 1, серії 1-4) / Miracle Workers (Season 1, episodes 1-4) (2019) 720p Ukr/Eng | Sub Eng

Чудотворці (Сезон 1, серії 1-4) / Miracle Workers (Season 1, episodes 1-4) (2019) 720p Ukr/Eng | Sub Eng


Жанр: комедія, драма, фантастика
Країна: США



Кінокомпанія: Broadway Video, Studio T
Режисер: Моріс Меребл, Йорма Такконе, Райан Кейс
Актори: Стів Бушемі, Деніел Редкліфф, Джеральдін Вісванатхан, Каран Соні, Саша Компере, Джон Басс, Лоллі Адефоп, Калеб Емері, Тереза О’Ші

Сюжет:
Події розгортаються на Небесах. На саме тих релігійних Небесах, куди потрапляють душі після смерті людини. Канцелярія Бога – бюрократичний апарат з величезною кількістю різноманітних департаментів, відділів, клерків та постійної метушні.

В центрі сюжету – історія співробітників HR-відділу, а саме ангелів Елізи і Крейга, які постійно опрацьовують звернення-молитви людей. Одного раз, Господь знову впав у немилість до людства і вирішив покарати смертних. Еліза та Крейг мають довести своєму патрону, що люди все ще не безнадійні…


Тривалість: 1 серія: 00:22 (цілком серій: 4)
Перелік серій
1. 2 Weeks
2. 13 Days
3. 12 Days
4. 6 Days
Якість: 720p
Відео:
кодек:
розмір кадру: 1280 х 720
бітрейт: ~ 4 000 кб/с

Аудіо # 1:
мова: українська
переклад: багатоголосий закадровий
кодек: 5.1
бітрейт: 384 кб/с

Аудіо # 2:
мова: англійська
переклад: оригінал
кодек: E- 5.1
бітрейт: 640 кб/с

Джерело озвучення:
DniproFilm

Субтитри:
мова: англійська
тип: програмні (м'які, SDH)
формат: *.srt
Info
General
Unique ID : 280535911998604119433047290757910975671 (0xD30D4057C78F9F2D8E221DA242F554B7)
Complete name : Miracle Workers S01E01 (2019) Rip 720p [UKR.ENG, sub ENG] [Hurtom].
Format :
Format version : Version 4
File size : 815 MiB
Duration : 21 min 49 s
Overall bit rate : 5 222 kb/s
Movie name : Чудотворці (Сезон 1, серія 1) (2019)
Encoded date : UTC 2019-02-25 18:34:53
Writing application : v30.1.0 ('Forever And More') 32-bit
Writing library : libebml v1.3.6 + v1.4.9
Cover : Yes
Attachments : cover.jpg

Video
ID : 1
Format : AVC
Format/Info : Advanced Video Codec
Format profile : [email protected]
Format settings : CABAC / 4 Ref Frames
Format settings, CABAC : Yes
Format settings, ReFrames : 4 frames
Codec ID : V_MPEG4/ISO/AVC
Duration : 21 min 49 s
Bit rate mode : Constant
Bit rate : 4 194 kb/s
Nominal bit rate : 6 000 kb/s
Width : 1 280 pixels
Height : 720 pixels
Display aspect ratio : 16:9
Frame rate mode : Constant
Frame rate : 23.976 (24000/1001) FPS
Color space : YUV
Chroma subsampling : 4:2:0
Bit depth : 8 bits
Scan type : Progressive
Bits/(Pixel*Frame) : 0.190
Stream size : 655 MiB (80%)
Language : English
Default : Yes
Forced : No
Color range : Limited
Color primaries : BT.709
Transfer characteristics : BT.709
Matrix coefficients : BT.709

Audio #1
ID : 2
Format : AC-3
Format/Info : Audio Coding 3
Commercial name : Dolby Digital
Codec ID : A_AC3
Duration : 21 min 49 s
Bit rate mode : Constant
Bit rate : 384 kb/s
Channel(s) : 6 channels
Channel layout : L R C LFE Ls Rs
Sampling rate : 48.0 kHz
Frame rate : 31.250 FPS (1536 SPF)
Bit depth : 16 bits
Compression mode : Lossy
Stream size : 59.9 MiB (7%)
Language : Ukrainian
Service kind : Complete Main
Default : Yes
Forced : Yes

Audio #2
ID : 3
Format : E-AC-3
Format/Info : Enhanced AC-3
Commercial name : Dolby Digital Plus
Codec ID : A_EAC3
Duration : 21 min 49 s
Bit rate mode : Constant
Bit rate : 640 kb/s
Channel(s) : 6 channels
Channel layout : L R C LFE Ls Rs
Sampling rate : 48.0 kHz
Frame rate : 31.250 FPS (1536 SPF)
Compression mode : Lossy
Stream size : 99.9 MiB (12%)
Language : English
Service kind : Complete Main
Default : No
Forced : No

Text #1
ID : 4
Format : UTF-8
Codec ID : S_TEXT/UTF8
Codec ID/Info : UTF-8 Plain Text
Duration : 21 min 44 s
Bit rate : 83 b/s
Count of elements : 462
Stream size : 13.4 KiB (0%)
Language : English
Default : No
Forced : No

Text #2
ID : 5
Format : UTF-8
Codec ID : S_TEXT/UTF8
Codec ID/Info : UTF-8 Plain Text
Duration : 21 min 44 s
Bit rate : 92 b/s
Count of elements : 534
Stream size : 14.7 KiB (0%)
Title : SDH
Language : English
Default : No
Forced : No
Скріншоти
Джерело:


Авторський реліз (завантажувати можна без реєстрації)
 Трекер:    Зареєстрований   

Завантажити / скачати серіал українською



відео для новачків



 Зареєстрований:   2019-03-15 13:17
 Розмір:   3.2 GB 
 Оцінка серіалу:   8.5/10 (Голосів: 13)
   
Anonymous 







2019-03-05 17:18  
Додано 3 серію
casper101 
VIP


З нами з: 03.12.09
Востаннє: 22.03.19
Повідомлень: 376

2019-03-05 20:42  
цілком серій сім?
ced 
Свій


З нами з: 11.02.17
Востаннє: 22.03.19
Повідомлень: 91

2019-03-06 21:54  
Невідомо чия озвучка?
Neytreenor 
Відео Гуртом - запис з ТБ
Відео Гуртом - запис з ТБ


З нами з: 03.04.11
Востаннє: 23.03.19
Повідомлень: 1764

2019-03-06 22:04  
ced написано:
Невідомо чия озвучка?

Відомо, просто релізер так любить студію, що ховає цю інформацію з усих сил. Вдивіться у дрібний шрифт.

Anonymous написано:
Джерело озвучення:
DniproFilm

don pedro 
Попереджень: 1
Попереджень: 1 


З нами з: 29.06.11
Востаннє: 23.03.19
Повідомлень: 13214

2019-03-08 21:38  
Ісус вже не той.
Anonymous 







2019-03-15 13:18  
Додано 4 серію
Ваш часовий пояс: GMT + 2 Години

Нова тема   Відповісти