Провал у часі / Retroactive (1997) Remux 1080p 2хUkr/Eng | Sub Eng

Нові коментарі

Нова тема   Відповісти
Автор Повідомлення
MakRA 
VIP


З нами з: 10.11.18
Востаннє: 17.11.19
Повідомлень: 517

2019-02-26 01:37  
Провал у часі / Retroactive (1997) Remux 1080p 2хUkr/Eng | Sub Eng

Провал у часі / Retroactive (1997) Remux 1080p 2хUkr/Eng | Sub Eng


Альтернативні постери:




Жанр: екшн, кримінальний, трилер, фантастика
Країна: США



Кінокомпанія: Cohiba Pictures, Orion Pictures Entertainment, Scanbox Entertainment, Starlight
Режисер: Луї Морно [Луї Морно]
Актори: Джеймс Белуші [Jim Belushi], Кайлі Тревіс [Kylie Travis], Шеннон Віррі [Shannon Whirry], Френк Вейлі [Frank Whaley], Джесс Боррего [Jesse Borrego], М. Еммет Волш [M. Emmet Walsh], Шерман Говард [Sherman Howard], Гай Бойд [Guy Boyd], Христина Коггінс [Kristina Coggins], Роберт Фібаут молодший [Robbie Thibaut Jr.], Роджер Клінтон [Roger Clinton].

Сюжет:
Під яскравим сонцем Великої Американської рівнини, на самотній автозаправній станції відбувається жорстокий злочин. Ці моторошні події відбуваються на очах у Карен, попутниці людини, яка виявилася нещадним вбивцею. Рятуючись від його переслідування, Карен знову і знову повертається в минуле, але всього лише на 20 хвилин назад для того, щоб запобігти вже вчиненому вбивству. Один вбивця! Один свідок! Один шанс врятуватися!


Нагороди:


1997: на Брюссельському кінофестивалі Луї Морно за створення цього фільму нагороджений премією "Срібний ворон" за свіжий і інноваційний підхід у фільмі цього жанру;
1997: фільм номінований на премію кінофестивалю Mystfest в категорії за найкращий фільм;
1997: картина номінована в категорії найкращий фільм на міжнародному кінофестивалі Sitges — Catalonian;
1997: на кінофестивалі фантастики в Швеції картина премійована призом глядацьких симпатій за найкращий художній фільм і призом за найкращі схвальні відгуки;
1998: номінація на премію "Сатурн" за найкращу телепостановку;
1998: Луї Морно за роботу над цією картиною нагороджений міжнародною премією за найкращий фантастичний фільм;
1998: на тижні кінофантастики Málaga картина премійована у номінаціях за найкращу акторську роботу (Джеймс Белуші) і спеціальний приз за найкращі спецефекти.
1998: Ґран-прі за найкращий фільм на кінофестивалі "Фанташпорту" у Португалії.


Тривалість: 01:30:59
Якість: Remux 1080p
Відео:
кодек:
розмір кадру: 1920 х 1080
бітрейт: 35 Мб/с

Аудіо # 1:
мова: українська
переклад: багатоголосий закадровий [AMC]
кодек: 2.0
бітрейт: 192 kb/s

Аудіо # 2:
мова: українська
переклад: багатоголосий закадровий [ICTV]
кодек: 2.0
бітрейт: 192 kb/s

Аудіо # 3:
мова: англійська
переклад: оригінал
кодек: 2.0
бітрейт: 192 kb/s

Аудіо # 4:
мова: англійська
переклад: оригінал
кодек: -MA 5.1
бітрейт: 2216 kb/s

Субтитри:
мова: англійська
тип: пререндерні
формат: *.pgs
Info
General
Unique ID : 30881412012391645813929734137143498714 (0x173B8B2A27508C7453C4F86EDCB217DA)
Complete name : F:\Триллери, кримінал\Retroactive (1997) Remux 1080p 2хUkrEng Sub Eng.
Format :
Format version : Version 4 / Version 2
File size : 23.7 GiB
Duration : 1 h 30 min
Overall bit rate mode : Variable
Overall bit rate : 37.3 Mb/s
Movie name : Провал у часі / Retroactive (1997) 1080p 2хUkr/Eng | Sub Eng [Hurtom]
Encoded date : UTC 2019-02-26 20:11:51
Writing application : v25.0.0 ('Prog Noir') 64-bit
Writing library : libebml v1.3.6 + v1.4.9

Video
ID : 1
Format : AVC
Format/Info : Advanced Video Codec
Format profile : [email protected]
Format settings, CABAC : Yes
Format settings, RefFrames : 3 frames
Codec ID : V_MPEG4/ISO/AVC
Duration : 1 h 30 min
Bit rate mode : Variable
Bit rate : 35.0 Mb/s
Maximum bit rate : 37.0 Mb/s
Width : 1 920 pixels
Height : 1 080 pixels
Display aspect ratio : 16:9
Frame rate mode : Constant
Frame rate : 23.976 (24000/1001) FPS
Standard : NTSC
Color space : YUV
Chroma subsampling : 4:2:0
Bit depth : 8 bits
Scan type : Progressive
Bits/(Pixel*Frame) : 0.704
Stream size : 21.9 GiB (92%)
Title : Retroactive (1997) Remux 1080p 2хUkr/Eng | Sub Eng [Hurtom]
Writing library : x264pro - Adobe CS Exporter Plug-in
Encoding settings : cabac=1 / ref=4 / deblock=1:-2:-2 / analyse=0x3:0x113 / me=umh / subme=9 / psy=1 / psy_rd=1.00:0.25 / mixed_ref=1 / me_range=16 / chroma_me=1 / trellis=1 / 8x8dct=1 / cqm=0 / deadzone=6,6 / fast_pskip=1 / chroma_qp_offset=-4 / threads=16 / lookahead_threads=2 / sliced_threads=0 / slices=4 / nr=0 / decimate=0 / interlaced=0 / bluray_compat=1 / constrained_intra=0 / bframes=3 / b_pyramid=1 / b_adapt=2 / b_bias=0 / direct=3 / weightb=1 / open_gop=0 / weightp=1 / keyint=24 / keyint_min=1 / scenecut=40 / intra_refresh=0 / rc_lookahead=24 / rc=abr / mbtree=1 / bitrate=35000 / ratetol=1.0 / qcomp=0.80 / qpmin=0 / qpmax=69 / qpstep=4 / vbv_maxrate=37000 / vbv_bufsize=30000 / nal_hrd=vbr / ip_ratio=1.10 / aq=1:0.05
Language : Ukrainian
Default : Yes
Forced : Yes
Color range : Limited
Color primaries : BT.709
Transfer characteristics : BT.709
Matrix coefficients : BT.709

Audio #1
ID : 2
Format : AC-3
Format/Info : Audio Coding 3
Format settings, Endianness : Big
Codec ID : A_AC3
Duration : 1 h 30 min
Bit rate mode : Constant
Bit rate : 192 kb/s
Channel(s) : 2 channels
Channel positions : Front: L R
Sampling rate : 48.0 kHz
Frame rate : 31.250 FPS (1536 SPF)
Bit depth : 16 bits
Compression mode : Lossy
Stream size : 125 MiB (1%)
Title : MVO [AMC]
Language : Ukrainian
Service kind : Complete Main
Default : Yes
Forced : Yes

Audio #2
ID : 3
Format : AC-3
Format/Info : Audio Coding 3
Format settings, Endianness : Big
Codec ID : A_AC3
Duration : 1 h 30 min
Bit rate mode : Constant
Bit rate : 192 kb/s
Channel(s) : 2 channels
Channel positions : Front: L R
Sampling rate : 48.0 kHz
Frame rate : 31.250 FPS (1536 SPF)
Bit depth : 16 bits
Compression mode : Lossy
Stream size : 125 MiB (1%)
Title : MVO [ICTV]
Language : Ukrainian
Service kind : Complete Main
Default : No
Forced : No

Audio #3
ID : 4
Format : AC-3
Format/Info : Audio Coding 3
Format settings, Endianness : Big
Codec ID : A_AC3
Duration : 1 h 30 min
Bit rate mode : Constant
Bit rate : 192 kb/s
Channel(s) : 2 channels
Channel positions : Front: L R
Sampling rate : 48.0 kHz
Frame rate : 31.250 FPS (1536 SPF)
Bit depth : 16 bits
Compression mode : Lossy
Stream size : 125 MiB (1%)
Title : Original
Language : English
Service kind : Complete Main
Default : No
Forced : No

Audio #4
ID : 5
Format :
Format/Info : Digital Theater Systems
Format profile : MA / Core
Mode : 16
Format settings, Endianness : Big
Codec ID : A_DTS
Duration : 1 h 30 min
Bit rate mode : Variable / Constant
Bit rate : 2 216 kb/s / 1 509 kb/s
Channel(s) : 6 channels
Channel positions : Front: L C R, Side: L R, LFE
Sampling rate : 48.0 kHz
Frame rate : 93.750 FPS (512 SPF)
Bit depth : 16 bits
Compression mode : Lossless / Lossy
Stream size : 1.41 GiB (6%)
Title : Original
Language : English
Default : No
Forced : No

Text
ID : 6
Format : PGS
Muxing mode : zlib
Codec ID : S_HDMV/PGS
Codec ID/Info : Picture based subtitle format used on BDs/HD-DVDs
Duration : 1 h 23 min
Bit rate : 30.7 kb/s
Count of elements : 1812
Stream size : 18.3 MiB (0%)
Title : Eng
Language : English
Default : No
Forced : No
Скріншоти
Джерело: &
За запис з AMC подяка п. slavik_v_z
За доріжку від ICTV подяка п. Lan, sando7, MAKAPOHHIK, igrik09
Особиста оцінка: 10 - без зайвих вагань рекомендую всім!



Золотий реліз (завантажене не впливає на рейтинг)
 Трекер:    Зареєстрований   

Завантажити / скачати фільм українською



відео для новачків



 Зареєстрований:   2019-02-27 01:06
 Розмір:   23.7 GB 
 Оцінка фільму:   9.9/10 (Голосів: 7)
   
Інші релізи
   Провал у часі / Retroactive (1997) AVC 2xUkr/Eng | Sub Eng staf777  7 / 0   2.18 GB   2019-10-17 15:41 
   Провал у часі / Retroactive (1997) 2xUkr/Eng Arsenfpu  5 / 0   1.78 GB   2016-12-28 23:40 
   Провал у часі / Retroactive (1997) 720р igrik09  8 / 0   2.88 GB   2012-03-13 00:34 
MakRA 
VIP


З нами з: 10.11.18
Востаннє: 17.11.19
Повідомлень: 517

2019-02-26 10:57  
Велике прохання поки що не вантажити, перероблятиму протягом дня. Було аварійне перезавантаження і збився торрент.
igor911 
Модератор відео


З нами з: 18.01.08
Востаннє: 17.11.19
Повідомлень: 13657

2019-02-26 11:46  
MakRA написано:
Якість: 1080p
Відео бітрейт: 35.0 Mb/s

На німецькому блуреї та на іншому (Retroactive 1997 1080p Blu-ray AVC -HD MA 5 1-BaggerInc) бітрейт відео 34485 kbps, тому сумніваюсь, що це .

MakRA 
VIP


З нами з: 10.11.18
Востаннє: 17.11.19
Повідомлень: 517

2019-02-26 12:16  
igor911
Ремукс

ika1963 
Відео Гуртом - дизайнер
Відео Гуртом - дизайнер


З нами з: 13.05.10
Востаннє: 16.11.19
Повідомлень: 281

2019-02-26 22:27  
Хороший фільм, Дж. Белуші роль поганого хлопчиська зіграв на 12 балів.
MakRA 
VIP


З нами з: 10.11.18
Востаннє: 17.11.19
Повідомлень: 517

2019-02-27 01:09  
Торрент-файл оновлено. Прохання перезавантажити.
Ваш часовий пояс: GMT + 2 Години

Нова тема   Відповісти