ДахаБраха - Шлях (2016) [] | Neofolk / Ethno-Chaos

Нові коментарі

Нова тема   Відповісти
Автор Повідомлення
kolpavel 
VIP


З нами з: 04.05.14
Востаннє: 24.08.19
Повідомлень: 1251

2019-02-25 22:08  
ДахаБраха - Шлях (2016) [] | Neofolk / Ethno-Chaos

ДахаБраха - Шлях (2016) [] | Neofolk / Ethno-Chaos


Стиль: Neofolk Ethno-Chaos
Країна, місто: Україна, Київ
Сайти: Офіційний сайт
Видавець: гурт
Виконавці:
Ірина Коваленко — вокал, джамбе, перкусія, басовий барабан, жалійка, волинка, флейта, бугай, аккордеон
Марко Галаневич — вокал, дарбука, табла, діджеріду, тромбон, аккордеон
Олена Цибульська — вокал, перкусія, басовий барабан, гармошка
Ніна Гаренецька — вокал, віолончель, басовий барабан

Пісні:
    01. Ой ішов чумак - 8:23
    02. Чорна хмара - 10:36
    03. Чумак - 6:59
    04. Salgir Boyu - 6:04
    05. Карамисли - 7:12
    06. А дощик накрапає - 5:58
    07. Монах - 4:57
    08. Соловей - 7:25
    09. Сєно - 6:54
    10. Свирид - 9:12

Тривалість: 01:13:03
Мова: українська крім (5) - кацапська, (4) - кримськотатарська.
Аудіо-кодек:
Бітрейт: 771 кб/с
Джерело: трекер
Додаткова інформація:
EAC
Exact Audio Copy V1.3 from 2. September 2016

Отчёт EAC об извлечении, выполненном 25. августа 2018, 16:48

DakhaBrakha / The Road

Дисковод: hp DVDRAM GT50N Adapter: 1 ID: 0

Режим чтения : Достоверность
Использование точного потока : Да
Отключение кэша аудио : Да
Использование указателей C2 : Нет

Коррекция смещения при чтении : 103
Способность читать области Lead-in и Lead-out : Нет
Заполнение пропущенных сэмплов тишиной : Да
Удаление блоков с тишиной в начале и конце : Нет
При вычислениях CRC использовались нулевые сэмплы : Да
Интерфейс : Встроенный Win32-интерфейс для Win NT/2000

Выходной формат : Пользовательский кодировщик
Выбранный битрейт : 128 kBit/s
Качество : Высокий
Добавление ID3-тега : Нет
Утилита сжатия : C:\Program Files (x86)\Exact Audio Copy\\.exe
Дополнительные параметры : -V -8 %source%

TOC извлечённого CD

Трек | Старт | Длительность | Начальный сектор | Конечный сектор
---------------------------------------------------------------------
1 | 0:00.00 | 8:25.04 | 0 | 37878
2 | 8:25.04 | 10:38.13 | 37879 | 85741
3 | 19:03.17 | 7:01.22 | 85742 | 117338
4 | 26:04.39 | 6:06.70 | 117339 | 144858
5 | 32:11.34 | 7:14.71 | 144859 | 177479
6 | 39:26.30 | 6:00.31 | 177480 | 204510
7 | 45:26.61 | 4:59.67 | 204511 | 227002
8 | 50:26.53 | 7:27.60 | 227003 | 260587
9 | 57:54.38 | 6:56.74 | 260588 | 291861
10 | 64:51.37 | 9:12.30 | 291862 | 333291

Характеристики диапазона извлечения и сообщения об ошибках

Выбранный диапазон

Имя файла C:\MyDocum\Audio\DakhaBrakha2016\DakhaBrakha - The Road.wav

Пиковый уровень 99.8 %
Скорость извлечения 4.4 X
Качество диапазона 100.0 %
CRC копии 5D9F192C
Копирование... OK

Ошибок не произошло

AccurateRip: сводка

Трек 1 : извлечено точно (доверие 3) [98CCE265] (AR v2)
Трек 2 : извлечено точно (доверие 3) [F9E49716] (AR v2)
Трек 3 : извлечено точно (доверие 3) [7690FE88] (AR v2)
Трек 4 : извлечено точно (доверие 3) [60761465] (AR v2)
Трек 5 : извлечено точно (доверие 3) [110F9349] (AR v2)
Трек 6 : извлечено точно (доверие 3) [441A73A7] (AR v2)
Трек 7 : извлечено точно (доверие 3) [2BCEA4AD] (AR v2)
Трек 8 : извлечено точно (доверие 3) [476CFAEC] (AR v2)
Трек 9 : извлечено точно (доверие 3) [441B6966] (AR v2)
Трек 10 : извлечено точно (доверие 3) [706B0F34] (AR v2)

Все треки извлечены точно

Конец отчёта

==== Контрольная сумма отчёта 477918D3EBE425ACD4B599CB690E431F836DD557C6025A6DCD430BDB3E0C09AB ====
(.CUE)
REM DISCID 99115B0A
REM COMMENT "ExactAudioCopy v1.3"
PERFORMER "DakhaBrakha"
TITLE "The Road"
REM COMPOSER ""
FILE "DakhaBrakha - The Road." WAVE
TRACK 01 AUDIO
TITLE "Oy ishov chumak"
PERFORMER "DakhaBrakha"
REM COMPOSER ""
INDEX 01 00:00:00
TRACK 02 AUDIO
TITLE "Chorna khmara"
PERFORMER "DakhaBrakha"
REM COMPOSER ""
INDEX 01 08:25:04
TRACK 03 AUDIO
TITLE "Chumak"
PERFORMER "DakhaBrakha"
REM COMPOSER ""
INDEX 01 19:03:17
TRACK 04 AUDIO
TITLE "Salgir Boyu"
PERFORMER "DakhaBrakha"
REM COMPOSER ""
INDEX 01 26:04:39
TRACK 05 AUDIO
TITLE "Karamysly"
PERFORMER "DakhaBrakha"
REM COMPOSER ""
INDEX 01 32:11:34
TRACK 06 AUDIO
TITLE "A doshchyk nakrapaie"
PERFORMER "DakhaBrakha"
REM COMPOSER ""
INDEX 01 39:26:30
TRACK 07 AUDIO
TITLE "Monakh"
PERFORMER "DakhaBrakha"
REM COMPOSER ""
INDEX 01 45:26:61
TRACK 08 AUDIO
TITLE "Solovey"
PERFORMER "DakhaBrakha"
REM COMPOSER ""
INDEX 01 50:26:53
TRACK 09 AUDIO
TITLE "Seno"
PERFORMER "DakhaBrakha"
REM COMPOSER ""
INDEX 01 57:54:38
TRACK 10 AUDIO
TITLE "Svyryd"
PERFORMER "DakhaBrakha"
REM COMPOSER ""
INDEX 01 64:51:37
Цей альбом створювався в дуже складний час для нашої Батьківщини. Ми хочемо присвятити його тим, хто віддав своє життя за нашу свободу, тим, хто продовжує стояти на її сторожі і тим, хто йде непростим шляхом вільної людини, не втрачаючи надії.

Керівник проекту: Влад Троїцький
Арт-Менеджер: Ірина Горбань
Продюсер запису і зведення:
Юрій Хусточка
Звук: BAMBRAFONE in ZvukoCeh
Мастеринг: Бенжамен Жубер - studio biduloscope
Дизайн: Марко Галаневич
Світлини: Ірина Горбань
Переклад: Настя Телікова
Редактор перекладу: Юрій Мазур

Буклет - http://dakhabrakha.com.ua/uploads/dakha-brakha-the-road..pdf

Якщо Ви справді бажаєте підтримати українське - після прослуховування, якщо музика вам сподобалась, придбайте ліцензійний диск. Підтримаймо вітчизняних виконавців!


Срібний реліз (на рейтинг впливає 50% завантаженого)
 Трекер:    Зареєстрований   

Завантажити / скачати українську музику



відео для новачків



 Зареєстрований:   2019-02-25 22:08
 Розмір:   408 MB 
 Оцінка музики:   10/10 (Голосів: 10)
   
Ваш часовий пояс: GMT + 2 Години

Нова тема   Відповісти