Темне дзеркало / Look Away (2018) 1080p H.265 Ukr/Eng | Sub Eng

Нові коментарі

Нова тема   Відповісти
Автор Повідомлення
Anonymous 







2019-02-25 20:35  
Темне дзеркало / Look Away (2018) 1080p H.265 Ukr/Eng | Sub Eng

Темне дзеркало / Look Away (2018) 1080p H.265 Ukr/Eng | Sub Eng


Жанр: містика, трилер, жахи
Країна: США
Кінокомпанія: Dana Lustig Productions, Buffalo Gal Pictures, Ace in the Hole Films
Режисер: Асаф Бернштейн
Актори: Індія Айслі, Джейсон Айзекс, Міра Сорвіно, Пенелопа Мітчелл, Харрісон Джілбертсон

Сюжет:
У Марії немає друзів, і навіть власні батьки вважають її невдахою. Усі секрети і образи вона довіряє тільки своєму відображенню в дзеркалі, демону-двійнику, що втілює темну сторону її душі. Але як зміниться життя Марії, якщо вона випустить своїх демонів назовні і дозволить їм здійснювати усі свої потаємні бажання?

Тривалість: 01:43:39
Якість:
Відео:
кодек: H.265 (HEVC)
розмір кадру: 1920 x 800
бітрейт: 3103 кб/с
бітова глибина: 10 біт
Увага! Перед завантаженням переконайтесь, що ваш пристрій відтворення (та/або ПЗ) підтримує H.265 (HEVC)

Аудіо # 1:
мова: українська
переклад: професійний дубльований
кодек: AC-3 2.0 (стерео)
бітрейт: 192 кб/с

Аудіо # 2:
мова: англійська
переклад: оригінал
кодек: 5.1
бітрейт: 1510 кб/с

Субтитри # 1:
мова: англійська (Full),
тип: програмні (м'які)
формат: *.srt


Info
Код:
General
Unique ID                                : 321372818416545957455527369514253165517 (0xF1C62747312B6B2617228ABC724A23CD)
Complete name                            : F:\Video\Look Away (2018) 1080p H.265 [UKR_ENG] [Hurtom].
Format                                   :
Format version                           : Version 4 / Version 2
File size                                : 3.48 GiB
Duration                                 : 1 h 43 min
Overall bit rate                         : 4 807 kb/s
Movie name                               : Look Away (2018)
Encoded date                             : UTC 2019-02-25 18:19:23
Writing application                      : v20.0.0 ('I Am The Sun') 64-bit
Writing library                          : libebml v1.3.5 + v1.4.8
Cover                                    : Yes
Attachments                              : cover.jpg

Video
ID                                       : 1
Format                                   : HEVC
Format/Info                              : High Efficiency Video Coding
Format profile                           : Main [email protected]@High
Codec ID                                 : V_MPEGH/ISO/HEVC
Duration                                 : 1 h 43 min
Bit rate                                 : 3 103 kb/s
Width                                    : 1 920 pixels
Height                                   : 800 pixels
Display aspect ratio                     : 2.40:1
Frame rate mode                          : Constant
Frame rate                               : 23.976 (24000/1001) FPS
Color space                              : YUV
Chroma subsampling                       : 4:2:0
Bit depth                                : 10 bits
Bits/(Pixel*Frame)                       : 0.084
Stream size                              : 2.25 GiB (65%)
Title                                    : Look Away (2018)
Writing library                          : x265 3.0+1-ed72af837053:[Windows][GCC 8.2.0][64 bit] 10bit
Encoding settings                        : cpuid=1111039 / frame-threads=4 / numa-pools=14,14 / wpp / pmode / no-pme / no-psnr / no-ssim / log-level=2 / input-csp=1 / input-res=1920x800 / interlace=0 / total-frames=149126 / level-idc=41 / high-tier=1 / uhd-bd=0 / ref=3 / no-allow-non-conformance / no-repeat-headers / annexb / no-aud / no-hrd / info / hash=0 / no-temporal-layers / open-gop / min-keyint=23 / keyint=240 / gop-lookahead=0 / bframes=4 / b-adapt=2 / b-pyramid / bframe-bias=0 / rc-lookahead=20 / lookahead-slices=5 / scenecut=40 / radl=0 / no-splice / no-intra-refresh / ctu=32 / min-cu-size=8 / no-rect / no-amp / max-tu-size=32 / tu-inter-depth=1 / tu-intra-depth=1 / limit-tu=0 / rdoq-level=0 / dynamic-rd=0.00 / no-ssim-rd / signhide / no-tskip / nr-intra=0 / nr-inter=0 / no-constrained-intra / no-strong-intra-smoothing / max-merge=2 / limit-refs=0 / no-limit-modes / me=2 / subme=5 / merange=32 / temporal-mvp / weightp / no-weightb / no-analyze-src-pics / deblock=-3:-3 / no-sao / no-sao-non-deblock / rd=3 / no-early-skip / rskip / no-fast-intra / no-tskip-fast / no-cu-lossless / no-b-intra / no-splitrd-skip / rdpenalty=0 / psy-rd=2.00 / psy-rdoq=0.00 / no-rd-refine / no-lossless / cbqpoffs=0 / crqpoffs=0 / rc=crf / crf=16.0 / qcomp=0.60 / qpstep=4 / stats-write=0 / stats-read=0 / vbv-maxrate=50000 / vbv-bufsize=50000 / vbv-init=0.9 / crf-max=0.0 / crf-min=0.0 / ipratio=1.40 / pbratio=1.30 / aq-mode=3 / aq-strength=0.95 / cutree / zone-count=0 / no-strict-cbr / qg-size=32 / no-rc-grain / qpmax=69 / qpmin=0 / no-const-vbv / sar=0 / overscan=0 / videoformat=5 / range=0 / colorprim=1 / transfer=1 / colormatrix=1 / chromaloc=0 / display-window=0 / max-cll=0,0 / min-luma=0 / max-luma=1023 / log2-max-poc-lsb=8 / vui-timing-info / vui-hrd-info / slices=1 / no-opt-qp-pps / no-opt-ref-list-length-pps / no-multi-pass-opt-rps / scenecut-bias=0.05 / no-opt-cu-delta-qp / no-aq-motion / no-hdr / no-hdr-opt / no-dhdr10-opt / no-idr-recovery-sei / analysis-reuse-level=5 / scale-factor=0 / refine-intra=0 / refine-inter=0 / refine-mv=0 / refine-ctu-distortion=0 / no-limit-sao / ctu-info=0 / no-lowpass-dct / refine-analysis-type=0 / copy-pic=1 / max-ausize-factor=1.0 / no-dynamic-refine / no-single-sei / no-hevc-aq / qp-adaptation-range=1.00
Language                                 : English
Default                                  : Yes
Forced                                   : No
Color range                              : Limited
Color primaries                          : BT.709
Transfer characteristics                 : BT.709
Matrix coefficients                      : BT.709

Audio #1
ID                                       : 2
Format                                   : AC-3
Format/Info                              : Audio Coding 3
Codec ID                                 : A_AC3
Duration                                 : 1 h 43 min
Bit rate mode                            : Constant
Bit rate                                 : 192 kb/s
Channel(s)                               : 2 channels
Channel positions                        : Front: L R
Sampling rate                            : 48.0 kHz
Frame rate                               : 31.250 FPS (1536 SPF)
Bit depth                                : 16 bits
Compression mode                         : Lossy
Stream size                              : 142 MiB (4%)
Title                                    : ПД
Language                                 : Ukrainian
Service kind                             : Complete Main
Default                                  : Yes
Forced                                   : Yes

Audio #2
ID                                       : 3
Format                                   :
Format/Info                              : Digital Theater Systems
Codec ID                                 : A_DTS
Duration                                 : 1 h 43 min
Bit rate mode                            : Constant
Bit rate                                 : 1 509 kb/s
Channel(s)                               : 6 channels
Channel positions                        : Front: L C R, Side: L R, LFE
Sampling rate                            : 48.0 kHz
Frame rate                               : 93.750 FPS (512 SPF)
Bit depth                                : 16 bits
Compression mode                         : Lossy
Stream size                              : 1.09 GiB (31%)
Title                                    : Original
Language                                 : English
Default                                  : No
Forced                                   : No

Text
ID                                       : 4
Format                                   : UTF-8
Codec ID                                 : S_TEXT/UTF8
Codec ID/Info                            : UTF-8 Plain Text
Duration                                 : 1 h 35 min
Bit rate                                 : 32 b/s
Count of elements                        : 800
Stream size                              : 22.5 KiB (0%)
Title                                    : Full
Language                                 : English
Default                                  : No
Forced                                   : No

Menu
00:00:00.000                             : :Chapter 01
00:10:36.218                             : :Chapter 02
00:19:55.819                             : :Chapter 03
00:26:28.795                             : :Chapter 04
00:35:57.947                             : :Chapter 05
00:43:52.630                             : :Chapter 06
00:53:10.896                             : :Chapter 07
01:01:52.458                             : :Chapter 08
01:09:05.641                             : :Chapter 09
01:17:10.042                             : :Chapter 10
01:24:25.810                             : :Chapter 11
01:37:18.707                             : :Chapter 12
Світлини





Підтримати купівлю інших фільмів можна тут.

Подяка пану AngryBirdsUA за доріжку

Джерело: &
Особиста оцінка: 0 - не дивився


 Трекер:    Зареєстрований   

Завантажити / скачати фільм українською



відео для новачків



 Зареєстрований:   2019-02-25 20:35
 Розмір:   3.48 GB 
 Оцінка фільму:   9.3/10 (Голосів: 3)
   
Інші релізи
   Темне дзеркало / Look Away (2018) 1080p Ukr/Eng | Sub Eng staf777  3 / 0   6.74 GB   2019-03-02 09:04 
   Темне дзеркало / Look Away (2018) Ukr/Eng uafilm.tv  7 / 0   1.46 GB   2019-02-24 09:47 
   Темне дзеркало / Look Away (2018) AVC Ukr/Eng | Sub Eng 11FrYkT  7 / 0   1.76 GB   2019-02-24 09:16 
   Темне дзеркало / Look Away (2018) 720p Ukr/Eng | Sub Eng 11FrYkT  2 / 0   5.33 GB   2019-02-24 08:38 
Reborn3854 
Свій


З нами з: 03.10.10
Востаннє: 21.11.19
Повідомлень: 110

2019-05-08 19:07  
Дякую!
Anonymous 







2019-05-08 19:56  
Reborn3854
На здоров'я!

Ваш часовий пояс: GMT + 2 Години

Нова тема   Відповісти