Крід ІІ: Спадок Роккі Бальбоа / Creed II (2018) 1080p H.265 Ukr/Eng | Sub Eng

Нові коментарі

Нова тема   Відповісти
Автор Повідомлення
Anonymous 







2019-02-25 20:32  
Крід ІІ: Спадок Роккі Бальбоа / Creed II (2018) 1080p H.265 Ukr/Eng | Sub Eng

Крід ІІ: Спадок Роккі Бальбоа / Creed II (2018) 1080p H.265 Ukr/Eng | Sub Eng


Жанр: драма, спорт
Країна: США
Кінокомпанія: Metro-Goldwyn-Mayer (MGM), Warner Bros., New Line Cinema
Режисер: Стівен Кейпл мл.
Актори: Майкл Б. Джордан, Сільвестр Сталлоне, Тесса Томпсон, Філіція Рашад, Дольф Лундгрен, Флоріан Мунтяну, Расселл Хорнсбі, Вуд Гарріс, Майло Вентімілья

Сюжет:
Життя Адоніса Кріда змінилося після останнього бою. У нього щасливе життя з його дівчиною Б'янкою. Більше того, їх молода сім'я чекає поповнення. Але в це спокійне життя втручається те, чого ніхто не чекає: з'являється Віктор Драго – син легендарного Івана Драго. Він відомий тим, що колись убив батька Адоніса Аполло Кріда, який помер на руках Роккі Бальбоа. І тепер Віктор викликає на бій Адоніса, щоб розправитися з ним так само, як його батько розправився з Аполло. Не дивлячись на прохання Роккі та Б'янки, він приймає бій і старанно до нього готується. Головне – не повторити долю батька.

Тривалість: 02:10:00
Якість:

Відео:
кодек: H.265 (HEVC)
розмір кадру: 1920 x 804
бітрейт: 3 530 кб/с
бітова глибина: 10 біт

Увага! Перед завантаженням переконайтесь, що ваш пристрій відтворення (та/або ПЗ) підтримує H.265 (HEVC)

Аудіо # 1:
мова: українська
озвучення: професійне дубльоване
кодек: AC-3 5.1
бітрейт: 384 кб/с

Аудіо # 2:
мова: англійська
озвучення: оригінал
кодек: AC-3 5.1
бітрейт: 640 кб/с

Субтитри # 1: (Forced)
мова: українська
тип: програмні (м'які)
формат: *.srt

Субтитри # 2-4: (Full, SDH, SDH-Colored)
мова: англійська
тип: програмні (м'які), пререндерні
формат: *.srt, *.pgs


Інформація про файл
Код:
General
Unique ID                                : 265243163991583950825920120881662522419 (0xC78BF9A7338D95E6B1B63D7433EDF433)
Complete name                            : Creed II (2018) 1080p H.265 [UKR_ENG] [Hurtom].
Format                                   :
Format version                           : Version 4
File size                                : 4.14 GiB
Duration                                 : 2 h 10 min
Overall bit rate                         : 4 564 kb/s
Movie name                               : Крід ІІ: Спадок Роккі Бальбоа / Creed II (2018)
Encoded date                             : UTC 2021-01-06 17:03:34
Writing application                      : v20.0.0 ('I Am The Sun') 64-bit
Writing library                          : libebml v1.3.5 + v1.4.8
Cover                                    : Yes
Attachments                              : Cover.jpg

Video
ID                                       : 1
Format                                   : HEVC
Format/Info                              : High Efficiency Video Coding
Format profile                           : Main [email protected]@High
Codec ID                                 : V_MPEGH/ISO/HEVC
Duration                                 : 2 h 10 min
Bit rate                                 : 3 531 kb/s
Width                                    : 1 920 pixels
Height                                   : 804 pixels
Display aspect ratio                     : 2.40:1
Frame rate mode                          : Constant
Frame rate                               : 23.976 (24000/1001) FPS
Color space                              : YUV
Chroma subsampling                       : 4:2:0
Bit depth                                : 10 bits
Bits/(Pixel*Frame)                       : 0.095
Stream size                              : 3.21 GiB (77%)
Title                                    : Крід ІІ: Спадок Роккі Бальбоа / Creed II (2018)
Writing library                          : x265 2.9+9-f74003e88622:[Windows][GCC 8.2.0][64 bit] 10bit
Encoding settings                        : cpuid=1111039 / frame-threads=7 / numa-pools=6 / wpp / no-pmode / no-pme / no-psnr / no-ssim / log-level=3 / input-csp=1 / input-res=1920x804 / interlace=0 / total-frames=0 / level-idc=41 / high-tier=1 / uhd-bd=0 / ref=5 / allow-non-conformance / no-repeat-headers / annexb / no-aud / no-hrd / info / hash=0 / no-temporal-layers / open-gop / min-keyint=24 / keyint=240 / gop-lookahead=0 / bframes=8 / b-adapt=2 / b-pyramid / bframe-bias=0 / rc-lookahead=20 / lookahead-slices=5 / scenecut=40 / radl=0 / no-intra-refresh / ctu=64 / min-cu-size=8 / rect / amp / max-tu-size=32 / tu-inter-depth=1 / tu-intra-depth=1 / limit-tu=0 / rdoq-level=0 / dynamic-rd=0.00 / no-ssim-rd / signhide / no-tskip / nr-intra=0 / nr-inter=0 / no-constrained-intra / no-strong-intra-smoothing / max-merge=2 / limit-refs=3 / no-limit-modes / me=3 / subme=7 / merange=57 / temporal-mvp / weightp / no-weightb / no-analyze-src-pics / deblock=-3:-3 / no-sao / no-sao-non-deblock / rd=3 / no-early-skip / rskip / no-fast-intra / no-tskip-fast / no-cu-lossless / no-b-intra / no-splitrd-skip / rdpenalty=0 / psy-rd=2.00 / psy-rdoq=0.00 / no-rd-refine / no-lossless / cbqpoffs=0 / crqpoffs=0 / rc=crf / crf=17.0 / qcomp=0.70 / qpstep=4 / stats-write=0 / stats-read=0 / vbv-maxrate=50000 / vbv-bufsize=50000 / vbv-init=0.9 / crf-max=30.0 / crf-min=0.0 / ipratio=1.40 / pbratio=1.30 / aq-mode=1 / aq-strength=1.00 / cutree / zone-count=0 / no-strict-cbr / qg-size=32 / no-rc-grain / qpmax=69 / qpmin=0 / no-const-vbv / sar=1 / overscan=0 / videoformat=5 / range=0 / colorprim=1 / transfer=1 / colormatrix=1 / chromaloc=0 / display-window=0 / max-cll=0,0 / min-luma=0 / max-luma=1023 / log2-max-poc-lsb=8 / vui-timing-info / vui-hrd-info / slices=1 / no-opt-qp-pps / no-opt-ref-list-length-pps / no-multi-pass-opt-rps / scenecut-bias=0.05 / no-opt-cu-delta-qp / no-aq-motion / no-hdr / no-hdr-opt / no-dhdr10-opt / no-idr-recovery-sei / analysis-reuse-level=5 / scale-factor=0 / refine-intra=0 / refine-inter=0 / refine-mv=0 / no-limit-sao / ctu-info=0 / no-lowpass-dct / refine-mv-type=0 / copy-pic=1 / max-ausize-factor=1.0 / no-dynamic-refine / no-single-sei
Language                                 : English
Default                                  : Yes
Forced                                   : No
Color range                              : Limited
Color primaries                          : BT.709
Transfer characteristics                 : BT.709
Matrix coefficients                      : BT.709

Audio #1
ID                                       : 2
Format                                   : AC-3
Format/Info                              : Audio Coding 3
Commercial name                          : Dolby Digital
Codec ID                                 : A_AC3
Duration                                 : 2 h 9 min
Bit rate mode                            : Constant
Bit rate                                 : 384 kb/s
Channel(s)                               : 6 channels
Channel layout                           : L R C LFE Ls Rs
Sampling rate                            : 48.0 kHz
Frame rate                               : 31.250 FPS (1536 SPF)
Compression mode                         : Lossy
Stream size                              : 357 MiB (8%)
Title                                    : AC-3 / 5.1 Ch / 384 kbps / DUB / iTunes / Студія "Postmodern"
Language                                 : Ukrainian
Service kind                             : Complete Main
Default                                  : Yes
Forced                                   : Yes

Audio #2
ID                                       : 3
Format                                   : AC-3
Format/Info                              : Audio Coding 3
Commercial name                          : Dolby Digital
Codec ID                                 : A_AC3
Duration                                 : 2 h 10 min
Bit rate mode                            : Constant
Bit rate                                 : 640 kb/s
Channel(s)                               : 6 channels
Channel layout                           : L R C LFE Ls Rs
Sampling rate                            : 48.0 kHz
Frame rate                               : 31.250 FPS (1536 SPF)
Compression mode                         : Lossy
Stream size                              : 595 MiB (14%)
Title                                    : AC-3 / 5.1 Ch / 640 kbps / Original
Language                                 : English
Service kind                             : Complete Main
Default                                  : No
Forced                                   : No

Text #1
ID                                       : 4
Format                                   : UTF-8
Codec ID                                 : S_TEXT/UTF8
Codec ID/Info                            : UTF-8 Plain Text
Duration                                 : 1 h 55 min
Bit rate                                 : 4 b/s
Count of elements                        : 104
Stream size                              : 3.57 KiB (0%)
Title                                    : Forced
Language                                 : Ukrainian
Default                                  : Yes
Forced                                   : Yes

Text #2
ID                                       : 5
Format                                   : UTF-8
Codec ID                                 : S_TEXT/UTF8
Codec ID/Info                            : UTF-8 Plain Text
Duration                                 : 1 h 58 min
Bit rate                                 : 52 b/s
Count of elements                        : 1543
Stream size                              : 45.9 KiB (0%)
Title                                    : Full
Language                                 : English
Default                                  : No
Forced                                   : No

Text #3
ID                                       : 6
Format                                   : UTF-8
Codec ID                                 : S_TEXT/UTF8
Codec ID/Info                            : UTF-8 Plain Text
Duration                                 : 2 h 1 min
Bit rate                                 : 59 b/s
Count of elements                        : 1788
Stream size                              : 53.0 KiB (0%)
Title                                    : SDH
Language                                 : English
Default                                  : No
Forced                                   : No

Text #4
ID                                       : 7
Format                                   : PGS
Muxing mode                              : zlib
Codec ID                                 : S_HDMV/PGS
Codec ID/Info                            : Picture based subtitle format used on BDs/HD-DVDs
Duration                                 : 2 h 1 min
Bit rate                                 : 28.4 kb/s
Count of elements                        : 3576
Stream size                              : 24.8 MiB (0%)
Title                                    : SDH-Colored
Language                                 : English
Default                                  : No
Forced                                   : No

Menu
00:00:00.000                             : :Chapter 01
00:11:33.150                             : :Chapter 02
00:20:06.163                             : :Chapter 03
00:33:28.006                             : :Chapter 04
00:43:49.126                             : :Chapter 05
00:57:51.885                             : :Chapter 06
01:06:38.869                             : :Chapter 07
01:20:12.516                             : :Chapter 08
01:31:01.956                             : :Chapter 09
01:40:14.216                             : :Chapter 10
01:50:31.458                             : :Chapter 11
02:02:55.910                             : :Chapter 12
Світлини




Джерело: &
Особиста оцінка: 0 - не дивився


 Трекер:    Зареєстрований   

Завантажити / скачати фільм українською



відео для новачків



 Зареєстрований:   2021-01-06 19:05
 Розмір:   4.14 GB 
 Оцінка фільму:   9.1/10 (Голосів: 7)
   
Anonymous 







2019-04-26 16:19  
Заміна звуку -> . Додав форсовані субтитри.

[Captain] 
Попереджень: 1
Попереджень: 1 


З нами з: 18.02.12
Востаннє: 20.01.21
Повідомлень: 2352

2020-06-11 18:42  
Подивився нарешті цю франшизу. Дуже раджу.
Anonymous 







2021-01-06 19:05  
Якісніша укр. доріжка.
Ваш часовий пояс: GMT + 2 Години

Нова тема   Відповісти