Помста / Revenge (2017) 1080p Eng | Sub Ukr/Eng

Нові коментарі

Нова тема   Відповісти
Автор Повідомлення
Anonymous 







2019-02-25 21:31  
Помста / Revenge (2017) 1080p Eng | Sub Ukr/Eng

Помста / Revenge (2017) 1080p Eng | Sub Ukr/Eng

Жанр: бойовик, жахи, трилер, кримінальний
Країна: Франція, Бельгія
Кінокомпанія: M.E.S. Productions, Monkey Pack Films, Charades, Logical Pictures, Nexus Factory, Umedia, uFund, Canal+, Ciné+, Cinémage 12, Le Tax Shelter du Gouvernement Fédéral de Belgique, Investisseurs Tax Shelter
Режисер: Коралі Фарже / Coralie Fargeat
Актори: Матильда Анна Інгрід Лутс / Matilda Anna Ingrid Lutz, Кевін Дженссенс / Kevin Janssens, Вінсент Коломбе / Vincent Colombe, Гійом Буше / Guillaume Bouchède, Жан-Луї Трибе / Jean-Louis Tribes

Сюжет:
Молода американка Дженіфер проводить вихідні з одруженим французьким бойфрендом у відокремленому комфортабельному будинку з басейном. Раптом завчасно туди приїжджають двоє його друзів, з якими він домовився пополювати у вихідні. Дівчині варто було б вести себе скромніше в присутності незнайомих чоловіків, але бажаючи розпалити пристрасть коханця, Дженіфер трохи заграє з його другом.
Троє друзів щороку збираються разом на полювання у пустельному каньйоні. Всі вони - заможні бізнесмени, сімейні люди, а цей вік-енд для них - своєрідний спосіб випустити пару і відчути свою мужність та брутальність. Однак на цей раз один з товаришів прибув на день раніше зі своєю сексуальною американською коханкою Джен, і та викликає інтерес у двох інших чоловіків. Ситуація виходить з-під контролю, і здається, дівчині доведеться загинути посеред висушеного пекла, але не все так просто. На самих мисливців відкривається полювання...

Тривалість: 01:48:30
Якість:
Відео:
кодек:
розмір кадру: 1920 x 808
бітрейт: 10 000 кб/с
примітка: відеоряд має хардсаб на французьку мову

Аудіо # 1:
мова: англійська, французька
переклад: оригінал
кодек: 5.1
бітрейт: 1510 кб/с

Субтитри # 1:
мова: українська (Full),
тип: програмні (м'які)
формат: *.srt
переклад: аматорський, спільнота SubAutumn
редагування: igor911

Субтитри # 2:
мова: англійська (Full),
тип: програмні (м'які)
формат: *.srt


Info
Код:
General
Unique ID                                : 94783811577681437015913614079109873927 (0x474EB2B66C69499C7DC5E46CDE1FC107)
Complete name                            : F:\Video\Revenge (2017) 1080p [ENG] [Hurtom].
Format                                   :
Format version                           : Version 4 / Version 2
File size                                : 8.72 GiB
Duration                                 : 1 h 48 min
Overall bit rate                         : 11.5 Mb/s
Movie name                               : Revenge (2017)
Encoded date                             : UTC 2019-02-25 18:23:12
Writing application                      : v20.0.0 ('I Am The Sun') 64-bit
Writing library                          : libebml v1.3.5 + v1.4.8
Cover                                    : Yes
Attachments                              : Cover.jpg

Video
ID                                       : 1
Format                                   : AVC
Format/Info                              : Advanced Video Codec
Format profile                           : [email protected]
Format settings                          : CABAC / 5 Ref Frames
Format settings, CABAC                   : Yes
Format settings, ReFrames                : 5 frames
Codec ID                                 : V_MPEG4/ISO/AVC
Duration                                 : 1 h 48 min
Bit rate                                 : 10 000 kb/s
Width                                    : 1 920 pixels
Height                                   : 808 pixels
Display aspect ratio                     : 2.40:1
Frame rate mode                          : Constant
Frame rate                               : 23.976 (24000/1001) FPS
Color space                              : YUV
Chroma subsampling                       : 4:2:0
Bit depth                                : 8 bits
Scan type                                : Progressive
Bits/(Pixel*Frame)                       : 0.269
Stream size                              : 7.58 GiB (87%)
Title                                    : Revenge (2017)
Writing library                          : core 155 r2901 7d0ff22
Encoding settings                        : cabac=1 / ref=5 / deblock=1:-2:-1 / analyse=0x3:0x133 / me=umh / subme=9 / psy=1 / psy_rd=1.00:0.15 / mixed_ref=1 / me_range=24 / chroma_me=1 / trellis=2 / 8x8dct=1 / cqm=0 / deadzone=21,11 / fast_pskip=1 / chroma_qp_offset=-3 / threads=25 / lookahead_threads=2 / sliced_threads=0 / nr=0 / decimate=1 / interlaced=0 / bluray_compat=0 / constrained_intra=0 / bframes=3 / b_pyramid=2 / b_adapt=2 / b_bias=0 / direct=3 / weightb=1 / open_gop=0 / weightp=2 / keyint=250 / keyint_min=23 / scenecut=40 / intra_refresh=0 / rc_lookahead=60 / rc=2pass / mbtree=1 / bitrate=10000 / ratetol=1.0 / qcomp=0.60 / qpmin=0 / qpmax=69 / qpstep=4 / cplxblur=20.0 / qblur=0.5 / ip_ratio=1.40 / aq=1:1.00
Language                                 : English
Default                                  : Yes
Forced                                   : No
Color range                              : Limited
Color primaries                          : BT.709
Transfer characteristics                 : BT.709
Matrix coefficients                      : BT.709

Audio
ID                                       : 2
Format                                   :
Format/Info                              : Digital Theater Systems
Codec ID                                 : A_DTS
Duration                                 : 1 h 48 min
Bit rate mode                            : Constant
Bit rate                                 : 1 509 kb/s
Channel(s)                               : 6 channels
Channel positions                        : Front: L C R, Side: L R, LFE
Sampling rate                            : 48.0 kHz
Frame rate                               : 93.750 FPS (512 SPF)
Bit depth                                : 24 bits
Compression mode                         : Lossy
Stream size                              : 1.14 GiB (13%)
Title                                    : Original
Language                                 : English
Default                                  : Yes
Forced                                   : Yes

Text #1
ID                                       : 3
Format                                   : UTF-8
Codec ID                                 : S_TEXT/UTF8
Codec ID/Info                            : UTF-8 Plain Text
Duration                                 : 1 h 43 min
Bit rate                                 : 18 b/s
Count of elements                        : 309
Stream size                              : 14.3 KiB (0%)
Title                                    : Full - спільнота SubAutumn
Language                                 : Ukrainian
Default                                  : Yes
Forced                                   : No

Text #2
ID                                       : 4
Format                                   : UTF-8
Codec ID                                 : S_TEXT/UTF8
Codec ID/Info                            : UTF-8 Plain Text
Duration                                 : 1 h 40 min
Bit rate                                 : 8 b/s
Count of elements                        : 254
Stream size                              : 6.47 KiB (0%)
Title                                    : Full
Language                                 : English
Default                                  : No
Forced                                   : No

Menu
00:00:00.000                             : en:00:00:00.000
00:09:51.716                             : en:00:09:51.716
00:14:02.967                             : en:00:14:02.967
00:23:57.186                             : en:00:23:57.186
00:37:53.438                             : en:00:37:53.438
00:58:20.539                             : en:00:58:20.539
01:25:53.899                             : en:01:25:53.899
01:45:10.888                             : en:01:45:10.888
Світлини






Джерело: &
Особиста оцінка: 0 - не дивився

Подяка п. Ham_R за українізацію постера.


Золотий реліз (завантажене не впливає на рейтинг)
 Трекер:    Зареєстрований   

Завантажити / скачати фільм українською



відео для новачків



 Зареєстрований:   2019-02-25 22:17
 Розмір:   8.72 GB 
 Оцінка фільму:   8.2/10 (Голосів: 5)
   
Інші релізи
   Помста / Revenge (2017) AVC Eng | Sub Ukr/Eng igor911  4 / 0   1.87 GB   2019-02-20 13:12 
igor911 
Модератор відео


З нами з: 18.01.08
Востаннє: 20.07.19
Повідомлень: 12933

2019-02-25 22:01  
-Star-Lord- написано:
Revenge (2017) 1080p H.265 [ENG] [Hurtom].
це помилка в назві файлу?

Додано через 43 секунди:

поки не пізно варто перейменувати.

Додано через 3 хвилини 19 секунд:

-Star-Lord- написано:
Тривалість: 01:48:30

є хардсаб на французькі репліки? тоді треба вказати це в описі. І дивлячись на останній скріншот виникає підозра на розсинхрон укр.сабів.

Anonymous 







2019-02-25 22:20  
igor911 написано:

-Star-Lord- написано:
Revenge (2017) 1080p H.265 [ENG] [Hurtom].
це помилка в назві файлу?

Так, звичка вже це дописувати до файлів)

igor911 написано:
І дивлячись на останній скріншот виникає підозра на розсинхрон укр.сабів.

Скрін був зроблений з розсинхроном, та з релізом все ок.

Додано через 59 секунд:

Змінив назву файлу.

Ваш часовий пояс: GMT + 2 Години

Нова тема   Відповісти