Радіо Кілер - Віаля / Radio Killer - Voila (2009) 1080p Eng | Sub Ukr/Eng

Нові коментарі

Нова тема   Відповісти
немає
Автор Повідомлення
11994455 
Попереджень: 1
Попереджень: 1 


З нами з: 07.04.14
Востаннє: 12.11.19
Повідомлень: 421

2019-02-24 17:05  
Радіо Кілер - Віаля / Radio Killer - Voila (2009) 1080p Eng | Sub Ukr/Eng

Радіо Кілер - Віаля / Radio Killer - Voila (2009) 1080p Eng | Sub Ukr/Eng


Жанр: поп, музичний кліп
Країна: Румунія

Актори: Paul Damixie

Сюжет:
Щоб знайти себе треба опуститись на саме дно...


Тривалість: 00:03:54
Якість: [youtube]
Відео:
кодек:
розмір кадру: 1 920 х 834
бітрейт: 3 817 кб/с

Аудіо:
мова: англійська
кодек: 2.0
бітрейт: 132 кб/с

Субтитри 1:
мова: англійська, українська
тип: програмні (м'які)
формат: *.srt
Info
General
Unique ID : 206060007266298884662990023755213376371 (0x9B05B6BDCA8271F19BFF6BB9FFC90B73)
Complete name : C:\Users\11994455\Videos\Radio Killer - Voila (HD) (1).
Format :
Format version : Version 4 / Version 2
File size : 111 MiB
Duration : 3 min 54 s
Overall bit rate : 3 976 kb/s
Encoded date : UTC 2019-02-24 14:51:56
Writing application : v8.9.0 ('Father Daughter') 32bit
Writing library : libebml v1.3.3 + v1.4.4

Video
ID : 1
Format : AVC
Format/Info : Advanced Video Codec
Format profile : [email protected]
Format settings : 1 Ref Frames
Format settings, CABAC : No
Format settings, ReFrames : 1 frame
Codec ID : V_MPEG4/ISO/AVC
Duration : 3 min 54 s
Bit rate : 3 817 kb/s
Width : 1 920 pixels
Height : 834 pixels
Display aspect ratio : 2.35:1
Frame rate mode : Constant
Frame rate : 25.000 FPS
Color space : YUV
Chroma subsampling : 4:2:0
Bit depth : 8 bits
Scan type : Progressive
Bits/(Pixel*Frame) : 0.095
Stream size : 107 MiB (97%)
Writing library : core 148 r2643 5c65704
Encoding settings : cabac=0 / ref=1 / deblock=1:0:0 / analyse=0x1:0x111 / me=hex / subme=7 / psy=1 / psy_rd=1.00:0.00 / mixed_ref=0 / me_range=16 / chroma_me=1 / trellis=1 / 8x8dct=0 / cqm=0 / deadzone=21,11 / fast_pskip=1 / chroma_qp_offset=-2 / threads=3 / lookahead_threads=1 / sliced_threads=0 / nr=0 / decimate=1 / interlaced=0 / bluray_compat=0 / constrained_intra=0 / bframes=0 / weightp=0 / keyint=250 / keyint_min=25 / scenecut=40 / intra_refresh=0 / rc_lookahead=40 / rc=abr / mbtree=1 / bitrate=3817 / ratetol=1.0 / qcomp=0.60 / qpmin=10 / qpmax=51 / qpstep=4 / ip_ratio=1.41 / aq=1:1.00
Default : Yes
Forced : No

Audio
ID : 2
Format :
Format/Info : Advanced Audio Codec
Format profile : LC
Codec ID : A_AAC-2
Duration : 3 min 54 s
Bit rate : 132 kb/s
Channel(s) : 2 channels
Channel positions : Front: L R
Sampling rate : 48.0 kHz
Frame rate : 46.875 FPS (1024 SPF)
Compression mode : Lossy
Delay relative to video : -21 ms
Stream size : 3.67 MiB (3%)
Language : English
Default : Yes
Forced : No

Text
ID : 3
Format : UTF-8
Codec ID : S_TEXT/UTF8
Codec ID/Info : UTF-8 Plain Text
Duration : 3 min 41 s
Bit rate : 54 b/s
Count of elements : 11
Stream size : 1.47 KiB (0%)
Language : Ukrainian
Default : Yes
Forced : No
Скріншоти


11994455 
Попереджень: 1
Попереджень: 1 


З нами з: 07.04.14
Востаннє: 12.11.19
Повідомлень: 421

2019-02-24 17:09  
Так я пішов
Оригінал - https://uk.savefrom.net/#url=http://youtube.com/watch?v=V861-hyswSw&utm_source=youtube.com&utm_medium=short_domains&utm_campaign=ssyoutube.com
Саби -

1
00:00:06,100 --> 00:00:54,800
Voila, la la la c'est la..
Вуаля! Ля-ля-ля... Така..ля-ля

2
00:00:55,100 --> 00:01:01,800
Here I am Standing tall I'm free of all The hate in the world
А ось і я. Держу голову високо. Я вільний від Ненависті в цьому світі.

3
00:01:02,100 --> 00:01:09,800
Here I am The fuse is bright I see a light The light in your eyes
А ось і я. Вогонь горить. Я бачу світло. Світло в твоїх очах.

4
00:01:10,100 --> 00:01:16,800
Here I am Standing tall I'm free of all The hate in the world
А ось і я. Держу голову високо. Я вільний від Ненависті в цьому світі.

5
00:01:17,100 --> 00:01:24,800
Here I am The fuse is bright I see a light The light in your eyes
А ось і я. Вогонь горить. Я бачу світло. Світло в твоїх очах.

6
00:01:25,100 --> 00:01:40,800
Voila, la la la c'est la..
Вуаля! Ля-ля-ля... Така..ля-ля

7
00:02:12,100 --> 00:02:19,800
Here I am Standing tall I'm free of all The hate in the world
А ось і я. Держу голову високо. Я вільний від Ненависті в цьому світі.

8
00:02:20,100 --> 00:02:27,800
Here I am The fuse is bright I see a light The light in your eyes
А ось і я. Вогонь горить. Я бачу світло. Світло в твоїх очах.

9
00:02:28,100 --> 00:02:36,800
Here I am Standing tall I'm free of all The hate in the world
А ось і я. Держу голову високо. Я вільний від Ненависті в цьому світі.

10
00:02:37,100 --> 00:02:47,800
Here I am The fuse is bright I see a light The light in your eyes
А ось і я. Вогонь горить. Я бачу світло. Світло в твоїх очах.

11
00:02:48,100 --> 00:03:37,800
Voila, la la la c'est la..
Вуаля! Ля-ля-ля... Така..ля-ля

12
00:03:40,100 --> 00:03:47,800
Субтитри: Тисовський А.І.
bot 
робот


З нами з: 30.09.07
Востаннє: 26.05.05
Повідомлень: 22459

2019-02-25 00:16  
Тему перенесено з Фільми в HD до форуму Музичне відео

Причина перенесення: муз.кліп
igor911
Ваш часовий пояс: GMT + 2 Години

Нова тема   Відповісти