Третя хвиля зомбі / The Cured (2017) Remux 1080p Ukr/Eng | Sub Eng

Нові коментарі

Нова тема   Відповісти
Останній раз роздавалося triggers (2019-11-13)
Автор Повідомлення
AngryBirdsUA 
Свій


З нами з: 24.02.10
Востаннє: 15.12.19
Повідомлень: 3147

2019-02-24 12:12  
Третя хвиля зомбі / The Cured (2017) Remux 1080p Ukr/Eng | Sub Eng

Третя хвиля зомбі / The Cured (2017) Remux 1080p Ukr/Eng | Sub Eng


Жанр: драма, жахи, фантастика
Країна: Ірландія



Кінокомпанія: Bac Films, Savage Productions, Tilted Pictures
Режисер: Девід Фрейн
Актори: Еллен Пейдж, Сем Кілі, Том Вон-Лолор, Стюарт Грехем, Емі Де Брюн, Хільда Фей

Сюжет:
Світ вразив страшний вірус, який більшу частину людства перетворив у ходячих мерців. Але вчені знайшли засіб проти хвороби та змогли вилікувати три чверті заражених. На жаль, у тих, кого вдалося повернути до життя, залишилися в пам'яті всі ті жахливі речі, які вони творили в формі зомбі. Їм дуже складно повернутися в суспільство після такої психологічної травми. Серед них і молодий чоловік на ім'я Сенан. Його з радістю прийняла родичка-вдова. Сенан повинен забути про своє темне минуле, про всі ті жахи. Але чи зможе суспільство пробачити йому ті страшні речі, які він творив?


Тривалість: 01:35:23
Якість: Remux 1080p
Відео:
кодек:
розмір кадру: 1920 х 1080
бітрейт: 33,6 Мб/с

Аудіо # 1:
мова: українська
переклад: багатоголосий закадровий
кодек: -HD MA 5.1
бітрейт: 3722 кб/с

Аудіо # 2:
мова: українська
переклад: професійний дубльований
кодек: 5.1
бітрейт: 640 кб/с

Аудіо # 3:
мова: англійська
переклад: оригінал
кодек: -HD MA 5.1
бітрейт: 3611 кб/с

Субтитри:
мова: англійська
тип: програмні (м'які)
формат: *.srt
Info
Код:
General
Unique ID                   : 70446015931028886863158230196637694007 (0x34FF68BE5854D22138FE49FB63307837)
Complete name               : J:\The Cured (2017) Remux 1080p [Ukr.Eng] [Sub Eng] [Hurtom].
Format                      :
Format version              : Version 4
File size                   : 27.7 GiB
Duration                    : 1 h 35 min
Overall bit rate mode       : Variable
Overall bit rate            : 41.5 Mb/s
Encoded date                : UTC 2019-02-24 08:46:28
Writing application         : v31.0.0 ('Dolores In A Shoestand') 64-bit
Writing library             : libebml v1.3.6 + v1.4.9
Attachments                 : poster.jpg

Video
ID                          : 1
Format                      : AVC
Format/Info                 : Advanced Video Codec
Format profile              : [email protected]
Format settings             : CABAC / 3 Ref Frames
Format settings, CABAC      : Yes
Format settings, ReFrames   : 3 frames
Codec ID                    : V_MPEG4/ISO/AVC
Duration                    : 1 h 35 min
Bit rate mode               : Variable
Bit rate                    : 33.6 Mb/s
Maximum bit rate            : 37.0 Mb/s
Width                       : 1 920 pixels
Height                      : 1 080 pixels
Display aspect ratio        : 16:9
Frame rate mode             : Constant
Frame rate                  : 23.976 (24000/1001) FPS
Color space                 : YUV
Chroma subsampling          : 4:2:0
Bit depth                   : 8 bits
Scan type                   : Progressive
Bits/(Pixel*Frame)          : 0.675
Stream size                 : 22.4 GiB (81%)
Default                     : Yes
Forced                      : No

Audio #1
ID                          : 2
Format                      : XLL
Format/Info                 : Digital Theater Systems
Commercial name             : -HD Master Audio
Codec ID                    : A_DTS
Duration                    : 1 h 35 min
Bit rate mode               : Variable
Bit rate                    : 3 722 kb/s
Channel(s)                  : 6 channels
Channel layout              : C L R Ls Rs LFE
Sampling rate               : 48.0 kHz
Frame rate                  : 93.750 FPS (512 SPF)
Bit depth                   : 24 bits
Compression mode            : Lossless
Stream size                 : 2.48 GiB (9%)
Language                    : Ukrainian
Default                     : Yes
Forced                      : Yes

Audio #2
ID                          : 3
Format                      : AC-3
Format/Info                 : Audio Coding 3
Commercial name             : Dolby Digital
Codec ID                    : A_AC3
Duration                    : 1 h 35 min
Bit rate mode               : Constant
Bit rate                    : 640 kb/s
Channel(s)                  : 6 channels
Channel layout              : L R C LFE Ls Rs
Sampling rate               : 48.0 kHz
Frame rate                  : 31.250 FPS (1536 SPF)
Bit depth                   : 16 bits
Compression mode            : Lossy
Stream size                 : 437 MiB (2%)
Language                    : Ukrainian
Service kind                : Complete Main
Default                     : No
Forced                      : No

Audio #3
ID                          : 4
Format                      : XLL
Format/Info                 : Digital Theater Systems
Commercial name             : -HD Master Audio
Codec ID                    : A_DTS
Duration                    : 1 h 35 min
Bit rate mode               : Variable
Bit rate                    : 3 611 kb/s
Channel(s)                  : 6 channels
Channel layout              : C L R Ls Rs LFE
Sampling rate               : 48.0 kHz
Frame rate                  : 93.750 FPS (512 SPF)
Bit depth                   : 24 bits
Compression mode            : Lossless
Stream size                 : 2.41 GiB (9%)
Language                    : English
Default                     : No
Forced                      : No

Text
ID                          : 5
Format                      : UTF-8
Codec ID                    : S_TEXT/UTF8
Codec ID/Info               : UTF-8 Plain Text
Duration                    : 1 h 26 min
Bit rate                    : 37 b/s
Count of elements           : 897
Stream size                 : 23.5 KiB (0%)
Language                    : English
Default                     : Yes
Forced                      : No


Подяка пану Hanway за синхронізацію доріжки.
Джерело:
Особиста оцінка: 0 - не дивився


Золотий реліз (завантажене не впливає на рейтинг)
 Трекер:    Зареєстрований   

Завантажити / скачати фільм українською



відео для новачків



 Зареєстрований:   2019-02-24 12:12
 Розмір:   27.68 GB 
 Оцінка фільму:   7/10 (Голосів: 4)
   
Інші релізи
   Третя хвиля зомбі / The Cured (2017) 720p Ukr/Eng | Sub Eng 11FrYkT  5 / 0   5.4 GB   2019-02-24 13:02 
   Третя хвиля зомбі / The Cured (2017) AVC AngryBirdsUA  8 / 0   1.43 GB   2019-02-24 12:02 
Ваш часовий пояс: GMT + 2 Години

Нова тема   Відповісти