Третя хвиля зомбі / The Cured (2017) AVC

Нові коментарі

Нова тема   Відповісти
Автор Повідомлення
AngryBirdsUA 
Свій


З нами з: 24.02.10
Востаннє: 01.07.20
Повідомлень: 3147

2019-02-24 13:02  
Третя хвиля зомбі / The Cured (2017) AVC

Третя хвиля зомбі / The Cured (2017) AVC


Жанр: драма, жахи, фантастика
Країна: Ірландія



Кінокомпанія: Bac Films, Savage Productions, Tilted Pictures
Режисер: Девід Фрейн
Актори: Еллен Пейдж, Сем Кілі, Том Вон-Лолор, Стюарт Грехем, Емі Де Брюн, Хільда Фей

Сюжет:
Світ вразив страшний вірус, який більшу частину людства перетворив у ходячих мерців. Але вчені знайшли засіб проти хвороби та змогли вилікувати три чверті заражених. На жаль, у тих, кого вдалося повернути до життя, залишилися в пам'яті всі ті жахливі речі, які вони творили в формі зомбі. Їм дуже складно повернутися в суспільство після такої психологічної травми. Серед них і молодий чоловік на ім'я Сенан. Його з радістю прийняла родичка-вдова. Сенан повинен забути про своє темне минуле, про всі ті жахи. Але чи зможе суспільство пробачити йому ті страшні речі, які він творив?


Тривалість: 01:35:23
Якість: AVC
Відео:
кодек:
розмір кадру: 1024 х 426
бітрейт: 1705 кб/с

Аудіо:
мова: українська
переклад: багатоголосий закадровий
кодек: 5.1
бітрейт: 448 кб/с
Info
[code]General
Unique ID : 81275119798889639365466983384229972239 (0x3D2504C939563D45425A68B750FD890F)
Complete name : J:\The Cured (2017) AVC [Ukr] [Hurtom].
Format :
Format version : Version 4
File size : 1.43 GiB
Duration : 1 h 35 min
Overall bit rate : 2 150 kb/s
Encoded date : UTC 2019-02-24 09:13:27
Writing application : v31.0.0 ('Dolores In A Shoestand') 64-bit
Writing library : libebml v1.3.6 + v1.4.9

Video
ID : 1
Format : AVC
Format/Info : Advanced Video Codec
Format profile : [email protected]
Format settings : CABAC / 10 Ref Frames
Format settings, CABAC : Yes
Format settings, ReFrames : 10 frames
Codec ID : V_MPEG4/ISO/AVC
Duration : 1 h 35 min
Bit rate : 1 705 kb/s
Width : 1 024 pixels
Height : 426 pixels
Display aspect ratio : 2.40:1
Frame rate mode : Constant
Frame rate : 23.976 (24000/1001) FPS
Color space : YUV
Chroma subsampling : 4:2:0
Bit depth : 8 bits
Scan type : Progressive
Bits/(Pixel*Frame) : 0.163
Stream size : 1.13 GiB (79%)
Writing library : core 146 r2538 121396c
Encoding settings : cabac=1 / ref=10 / deblock=1:-2:-3 / analyse=0x3:0x133 / me=umh / subme=11 / psy=1 / psy_rd=0.97:0.07 / mixed_ref=1 / me_range=48 / chroma_me=1 / trellis=2 / 8x8dct=1 / cqm=0 / deadzone=21,11 / fast_pskip=1 / chroma_qp_offset=-3 / threads=6 / lookahead_threads=1 / sliced_threads=0 / nr=0 / decimate=1 / interlaced=0 / bluray_compat=0 / constrained_intra=0 / bframes=10 / b_pyramid=2 / b_adapt=2 / b_bias=0 / direct=3 / weightb=1 / open_gop=0 / weightp=2 / keyint=240 / keyint_min=23 / scenecut=40 / intra_refresh=0 / rc_lookahead=40 / rc=2pass / mbtree=0 / bitrate=1705 / ratetol=1.0 / qcomp=0.60 / qpmin=0 / qpmax=69 / qpstep=4 / cplxblur=20.0 / qblur=0.5 / vbv_maxrate=50000 / vbv_bufsize=62500 / nal_hrd=none / filler=0 / ip_ratio=1.40 / pb_ratio=1.30 / aq=1:1.00
Language : English
Default : Yes
Forced : No

Audio
ID : 2
Format : AC-3
Format/Info : Audio Coding 3
Commercial name : Dolby Digital
Codec ID : A_AC3
Duration : 1 h 35 min
Bit rate mode : Constant
Bit rate : 448 kb/s
Channel(s) : 6 channels
Channel layout : L R C LFE Ls Rs
Sampling rate : 48.0 kHz
Frame rate : 31.250 FPS (1536 SPF)
Bit depth : 16 bits
Compression mode : Lossy
Stream size : 306 MiB (21%)
Language : Ukrainian
Service kind : Complete Main
Default : Yes
Forced : Yes
[code]


Подяка пану Hanway за синхронізацію доріжки.

Джерело:
Особиста оцінка: 0 - не дивився


 Трекер:    Зареєстрований   

Завантажити / скачати фільм українською



відео для новачків



 Зареєстрований:   2019-02-24 13:02
 Розмір:   1.43 GB 
 Оцінка фільму:   7.9/10 (Голосів: 19)
   
Інші релізи
pasport22 
Частий відвідувач


З нами з: 30.10.14
Востаннє: 01.06.20
Повідомлень: 49

2019-02-24 15:44  
переклад назви з англійської чи з москаликів?
tglucky 
Новенький


З нами з: 03.02.15
Востаннє: 03.07.20
Повідомлень: 3

2019-02-24 19:30  
Хто бачив,фільм вартий перегляду?
taksist 
VIP


З нами з: 10.12.12
Востаннє: 03.07.20
Повідомлень: 373

2020-03-27 11:16  
оцінка занижена, фільм достойний вищої оцінки.
don pedro 
Попереджень: 1
Попереджень: 1 


З нами з: 29.06.11
Востаннє: 03.07.20
Повідомлень: 17123

2020-03-27 13:12  
AngryBirdsUA написано:
На жаль, у тих, кого вдалося повернути до життя, залишилися в пам'яті всі ті жахливі речі, які вони творили в формі зомбі. Їм дуже складно повернутися в суспільство після такої психологічної травми.

Сюжет нагадує британський зомбі-серіал "У плоті".

don pedro 
Попереджень: 1
Попереджень: 1 


З нами з: 29.06.11
Востаннє: 03.07.20
Повідомлень: 17123

2020-03-27 18:05  
Хороший фільм. Елен Пейдж, як завжди, на висоті.
Та якщо ви хочете побачити щось на зразок "Мерців, що вештаються", цей фільм не для вас. Зомбування тут скоріше якийсь сказ. Тому фільм нагадує, по перше, перш за все британський серіал "У плоті", а по друге, хоч і меншою мірою, знаменитий британський фільм "28 днів після".
Фільм заслуговує на вищу оцінку.

plotinus 
Частий відвідувач


З нами з: 23.03.15
Востаннє: 04.07.20
Повідомлень: 46

2020-05-10 02:25  
Фільм не дуже сподобався, хоч я й запеклий фанат зомбі-тематики. Є цікава задумка. Є конфлікти, драма. Хороша гра акторів. Але мінуси, як на мене, наступні: бляклі персонажі. Сюжет хотілося б краще, він аж надто прямий і багато дірок. Та, найважливіше: аж надто затягнули фільм. Величезні паузи в діалогах весь час, це дуже дратувало. Чи можу я сказати, що фільм не сподобався? Ні. Він сподобався не дуже. Оцінка, вважаю, правильна. Це однозначно не якась фігня. В кінці дали трошечки екшену. Та це більше драма.
Ваш часовий пояс: GMT + 2 Години

Нова тема   Відповісти