Біле ікло 2: Легенда про білого вовка / White Fang 2: Myth of the White Wolf (1994) 1080p Ukr/Eng | Sub Eng

Нові коментарі

Нова тема   Відповісти
Автор Повідомлення
Anonymous 







2019-02-24 09:58  
Біле ікло 2: Легенда про білого вовка / White Fang 2: Myth of the White Wolf (1994) 1080p Ukr/Eng | Sub Eng

Біле ікло 2: Легенда про білого вовка / White Fang 2: Myth of the White Wolf (1994) 1080p Ukr/Eng | Sub Eng
Альтернативний постер:

Біле ікло 2: Легенда про білого вовка / White Fang 2: Myth of the White Wolf (1994) 1080p Ukr/Eng | Sub Eng


Жанр: пригодницький, сімейний
Країна: США



Кінокомпанія: Walt Disney Pictures
Режисер: Кен Олін / Ken Olin
Актори: Скот Баєрстоу / Scott Bairstow, Шармейн Крейг / Charmaine Craig, Ел Харінгтон / Al Harrington, Вікторія Расімо / Victoria Racimo, Альфред Моліна / Alfred Molina та інші

Сюжет:
На Дикому Заході здавна існувала легенда про білого вовка. Ніхто не міг розгадати цей міф. Але коли древнє індіанське плем'я потрапило в біду, і золотошукач Генрі зі своїм псом по кличці Біле Ікло став на його захист, таємничий переказ втілюється в реальність ...


Рейтинг MPAA: PG - рекомендується присутність батьків
Вікова категорія: 6+

Тривалість: 01:46:08
Якість: 1080p [Amazon]

Відео:
кодек:
розмір кадру: 1920 х 1080
бітрейт: 11,5 Мб/с

Аудіо # 1:
мова: українська
переклад: багатоголосий закадровий | студія LeDoyen
кодек: 2.0 [стерео]
бітрейт: 192 кб/с
Інформація про озвучення

Режисер: Ольга Чернілевська
Перекладач: Павло Голов
Звукорежисер: Олег Кульчицький
Звукорежисер перезапису: Віктор Алферов
Актори озвучення: Михайло Войчук, Роман Чорний, Дмитро Вікулов, Наталя Задніпровська, Олександр Завальський, Павло Скороходько.

Фільм озвучено студією LeDoyen
Аудіо # 2:
мова: англійська
переклад: оригінал
кодек: E- 5.1
бітрейт: 640 кб/с

Субтитри:
мова: англійська (SDH)
тип: програмні (м'які)
формат: *.srt
Info
Код:

Complete name               : White Fang 2. Myth of the White Wolf (1994) [Ukr,Eng sub.Eng] AMZN 1080p [Hurtom].
Format                      :
Format version              : Version 4
File size                   : 9.11 GiB
Duration                    : 1 h 46 min
Overall bit rate mode       : Variable
Overall bit rate            : 12.3 Mb/s
Movie name                  : Біле ікло 2: Легенда про білого вовка / White Fang 2: Myth of the White Wolf (1994) [Ukr,Eng sub.Eng] 1080p [Hurtom]
Encoded date                : UTC 2019-02-24 14:39:44
Writing application         : v31.0.0 ('Dolores In A Shoestand') 64-bit
Writing library             : libebml v1.3.6 + v1.4.9
Cover                       : Yes
Attachments                 : cover.jpg

Video
ID                          : 1
Format                      : AVC
Format/Info                 : Advanced Video Codec
Format profile              : [email protected]
Format settings             : CABAC / 4 Ref Frames
Format settings, CABAC      : Yes
Format settings, ReFrames   : 4 frames
Codec ID                    : V_MPEG4/ISO/AVC
Duration                    : 1 h 46 min
Bit rate mode               : Variable
Bit rate                    : 11.5 Mb/s
Maximum bit rate            : 15.0 Mb/s
Width                       : 1 920 pixels
Height                      : 1 080 pixels
Display aspect ratio        : 16:9
Frame rate mode             : Constant
Frame rate                  : 23.976 (24000/1001) FPS
Color space                 : YUV
Chroma subsampling          : 4:2:0
Bit depth                   : 8 bits
Scan type                   : Progressive
Bits/(Pixel*Frame)          : 0.230
Stream size                 : 8.49 GiB (93%)
Title                       : Біле ікло 2: Легенда про білого вовка / White Fang 2: Myth of the White Wolf (1994) AMZN 1080p
Writing library             : core 148 r2623 d5b2374
Encoding settings           : cabac=1 / ref=4 / deblock=1:-1:-1 / analyse=0x3:0x133 / me=umh / subme=9 / psy=1 / psy_rd=1.00:0.15 / mixed_ref=1 / me_range=24 / chroma_me=1 / trellis=2 / 8x8dct=1 / cqm=0 / deadzone=21,11 / fast_pskip=1 / chroma_qp_offset=-3 / threads=34 / lookahead_threads=5 / sliced_threads=0 / nr=150 / decimate=1 / interlaced=0 / bluray_compat=0 / constrained_intra=0 / bframes=8 / b_pyramid=2 / b_adapt=2 / b_bias=0 / direct=3 / weightb=1 / open_gop=0 / weightp=2 / keyint=120 / keyint_min=61 / scenecut=0 / intra_refresh=0 / rc_lookahead=120 / rc=crf / mbtree=1 / crf=18.0 / qcomp=0.60 / qpmin=0 / qpmax=69 / qpstep=4 / vbv_maxrate=15000 / vbv_bufsize=31250 / crf_max=0.0 / nal_hrd=vbr / filler=0 / ip_ratio=1.40 / aq=3:1.00
Language                    : English
Default                     : Yes
Forced                      : No
Color range                 : Limited
Color primaries             : BT.709
Transfer characteristics    : BT.709
Matrix coefficients         : BT.709

Audio #1
ID                          : 2
Format                      : AC-3
Format/Info                 : Audio Coding 3
Commercial name             : Dolby Digital
Codec ID                    : A_AC3
Duration                    : 1 h 46 min
Bit rate mode               : Constant
Bit rate                    : 192 kb/s
Channel(s)                  : 2 channels
Channel layout              : L R
Sampling rate               : 48.0 kHz
Frame rate                  : 31.250 FPS (1536 SPF)
Bit depth                   : 16 bits
Compression mode            : Lossy
Stream size                 : 146 MiB (2%)
Title                       : MVO [LeDoyen] 2.0 [stereo] 192 Kbps
Language                    : Ukrainian
Service kind                : Complete Main
Default                     : Yes
Forced                      : No

Audio #2
ID                          : 3
Format                      : E-AC-3
Format/Info                 : Enhanced AC-3
Commercial name             : Dolby Digital Plus
Codec ID                    : A_EAC3
Duration                    : 1 h 46 min
Bit rate mode               : Constant
Bit rate                    : 640 kb/s
Channel(s)                  : 6 channels
Channel layout              : L R C LFE Ls Rs
Sampling rate               : 48.0 kHz
Frame rate                  : 31.250 FPS (1536 SPF)
Compression mode            : Lossy
Stream size                 : 486 MiB (5%)
Title                       : Original, E- 5.1 640 Kbps
Language                    : English
Service kind                : Complete Main
Default                     : No
Forced                      : No

Text
ID                          : 4
Format                      : UTF-8
Codec ID                    : S_TEXT/UTF8
Codec ID/Info               : UTF-8 Plain Text
Duration                    : 1 h 41 min
Bit rate                    : 30 b/s
Count of elements           : 977
Stream size                 : 22.6 KiB (0%)
Title                       : Eng SDH
Language                    : English
Default                     : No
Forced                      : No
Додаткові скріншоти:
Джерело: &
Подяка п.NemoInFire за українську доріжку, синхронізація під Amazon - igor911.


Срібний реліз (на рейтинг впливає 50% завантаженого)
 Трекер:    Зареєстрований   

Завантажити / скачати фільм українською



відео для новачків



 Зареєстрований:   2019-02-24 19:12
 Розмір:   9.11 GB 
 Оцінка фільму:   9.5/10 (Голосів: 4)
 ЗАЛИШАЙТЕСЬ ЯКОМОГА ДОВШЕ НА РОЗДАЧІ! ЗАВАНТАЖИВ САМ - ДАЙ ЗАВАНТАЖИТИ ІНШИМ!
   
dimon-2018 
Поважний учасник


З нами з: 06.05.18
Востаннє: 23.04.19
Повідомлень: 224

2019-02-24 20:34  
До речі, на Мегого вже є і перша частина.
Віктор Багряний 
VIP


З нами з: 20.08.12
Востаннє: 22.04.19
Повідомлень: 387

2019-02-26 09:08  
dimon-2018
До речі перша частина на Толоці представлена трьома релізами п'яти з гаком річної давності.

dimon-2018 
Поважний учасник


З нами з: 06.05.18
Востаннє: 23.04.19
Повідомлень: 224

2019-02-26 11:11  
Віктор Багряний написано:
До речі перша частина на Толоці представлена трьома релізами п'яти з гаком річної давності.

Про це я в курсі. Та, можливо, на Мегого є профейсійна озвучка/дубляж від LeDoyen.

Ваш часовий пояс: GMT + 2 Години

Нова тема   Відповісти