Кобра / Cobra (1986) Remux 1080p 2хUkr/Eng | Sub Ukr/Eng

Нові коментарі

Нова тема   Відповісти
Автор Повідомлення
MakRA 
VIP


З нами з: 10.11.18
Востаннє: 11.12.19
Повідомлень: 596

2019-02-24 00:21  
Кобра / Cobra (1986) Remux 1080p 2хUkr/Eng | Sub Ukr/Eng



Український постер:



Жанр: екшн, кримінальний, бойовик
Країна: США



Кінокомпанія: Warner Brothers, The Cannon Group
Режисер: Джордж Пан Косматос [George P. Cosmatos]
Актори: Сільвестр Сталлоне [Sylvester Stallone], Бриджит Нільсен [Brigitte Nielsen], Рені Сантоні [Reni Santoni], Ендрю Робінсон [Andrew Robinson], Брайан Томпсон [Brian Thompson], Джон Херцфелд [John Herzfeld], Лі Гарлінгтон [Lee Garlington], Арт ЛаФлер [Art LaFleur], Марко Родрігес [Marco Rodríguez], Росс Ст. Філіп [Ross St. Phillip], Вел Ейвері [Val Avery], Девід Раш [David Rasche], Джон Гоук [John Hauk], Нік Анготті [Nick Angotti], Ніна Аксельрод [Nina Axelrod].

Сюжет:
Лос-Анджелес оповитий страхом. У місті орудує маніяк, який нещадно вбиває усіх. Але завдяки свідченням випадкового свідка, слідству стає відомо, що за всім цим стоїть не одна людина, а ціла група безжальних фанатиків. Банда прагне змусити замовкнути назавжди єдиного свідка. На захист дівчини встає крутий поліцейський, практикуючий нестандартні методи ведення слідства.

Цікаві факти:


Сталлоне використав деякі ідеї зі сценарію до фільму "Поліцейський з Беверлі-Хіллз" (1984).
Фільм лише частково заснований на романі Поли Гослінг "Чесна гра", оскільки, за словами Сталлоне, для бойовика, у книзі було обмаль дії.
Фільм дуже негативно прийняли критики, але широка публіка була в захваті. Фільм був вражаюче популярний у пострадянського глядача, плакати з "Кобри" і знамениті окуляри увійшли в ужиток.
Сталлоне особисто наполіг на тому, щоб головну жіночу роль зіграла Бриджит Нільсен. Він же наполіг на кандидатурі Джорджа Пана Косматоса як режисера.
Автомобіль, на якому роз'їжджає головний герой — Mercury Monterey Coupe 1950, належав Сильвестру Сталлоне.
У фільмі 52 трупа.
У прем'єрний вік-енд картина зібрала 12,6 мільйонів доларів, що стало найуспішнішою прем'єрою студії "Warner Brothers" на той час.
Планувалося продовження, але проект так і не був втілений в життя.
У той час Нільсен і Сталлоне були подружжям.
Автомат в руках Кобри — це фінський Jatimatic.
В американській комедії "Поліцейський з Беверлі-Хіллз 2" (1987) в квартирі детектива Вільяма Роузвуда на стіні висить постер фільму.




Тривалість: 01:27:04
Якість: Remux 1080p
Відео:
кодек: VC-1
розмір кадру: 1920 х 1080
бітрейт: 19.9 Mb/s

Аудіо # 1:
мова: українська
переклад: багатоголосий закадровий [ICTV]
кодек: 2.0
бітрейт: 192 kb/s

Аудіо # 2:
мова: українська
переклад: двоголосий закадровий [1+1]
кодек: 2.0
бітрейт: 192 kb/s

Аудіо # 3:
мова: англійська
переклад: оригінал
кодек: -MA 5.1
бітрейт: 4 230 kb/s

Аудіо # 4:
мова: англійська
переклад: оригінал
кодек: 2.0
бітрейт: 192 kb/s

Аудіо # 5:
мова: англійська
переклад: оригінал | коментарі режисера Джорджа Пан Косматоса
кодек: 2.0
бітрейт: 192 kb/s

Субтитри # 1:
мова: українська
тип: програмні (м'які)
формат: *.srt

Субтитри # 2:
мова: англійська
тип: пререндерні
формат: *.pgs
Info
General
Unique ID : 89229354579200144476660844109952382873 (0x4320F2D6CF661499CE851D64F18EF799)
Complete name : F:\Екшн, бойовики\Cobra (1986) Remux 1080p 2хUkrEng Sub UkrEng [Hurtom].
Format :
Format version : Version 4 / Version 2
File size : 15.2 GiB
Duration : 1 h 27 min
Overall bit rate : 25.0 Mb/s
Movie name : Кобра / Cobra (1986) Remux 1080p 2хUkr/Eng | Sub Ukr/Eng [Hurtom]
Encoded date : UTC 2019-02-22 18:17:23
Writing application : v25.0.0 ('Prog Noir') 64-bit
Writing library : libebml v1.3.6 + v1.4.9

Video
ID : 1
Format : VC-1
Format profile : [email protected]
Codec ID : V_MS/VFW/FOURCC / WVC1
Codec ID/Hint : Microsoft
Duration : 1 h 27 min
Bit rate : 19.9 Mb/s
Width : 1 920 pixels
Height : 1 080 pixels
Display aspect ratio : 16:9
Frame rate mode : Constant
Frame rate : 23.976 (24000/1001) FPS
Color space : YUV
Chroma subsampling : 4:2:0
Bit depth : 8 bits
Scan type : Progressive
Compression mode : Lossy
Bits/(Pixel*Frame) : 0.401
Stream size : 12.1 GiB (80%)
Title : Cobra (1986) Remux 1080p 2хUkr/Eng | Sub Ukr/Eng [Hurtom]
Language : Ukrainian
Default : Yes
Forced : Yes

Audio #1
ID : 2
Format : AC-3
Format/Info : Audio Coding 3
Format settings, Endianness : Big
Codec ID : A_AC3
Duration : 1 h 27 min
Bit rate mode : Constant
Bit rate : 192 kb/s
Channel(s) : 2 channels
Channel positions : Front: L R
Sampling rate : 48.0 kHz
Frame rate : 31.250 FPS (1536 SPF)
Bit depth : 16 bits
Compression mode : Lossy
Stream size : 120 MiB (1%)
Title : MVO [ICTV]
Language : Ukrainian
Service kind : Complete Main
Default : Yes
Forced : Yes

Audio #2
ID : 3
Format : AC-3
Format/Info : Audio Coding 3
Format settings, Endianness : Big
Codec ID : A_AC3
Duration : 1 h 27 min
Bit rate mode : Constant
Bit rate : 192 kb/s
Channel(s) : 2 channels
Channel positions : Front: L R
Sampling rate : 48.0 kHz
Frame rate : 31.250 FPS (1536 SPF)
Bit depth : 16 bits
Compression mode : Lossy
Stream size : 120 MiB (1%)
Title : DVO [1+1]
Language : Ukrainian
Service kind : Complete Main
Default : No
Forced : No

Audio #3
ID : 4
Format :
Format/Info : Digital Theater Systems
Format profile : MA / Core
Mode : 16
Format settings, Endianness : Big
Codec ID : A_DTS
Duration : 1 h 27 min
Bit rate mode : Variable / Constant
Bit rate : 4 230 kb/s / 1 509 kb/s
Channel(s) : 6 channels
Channel positions : Front: L C R, Side: L R, LFE
Sampling rate : 48.0 kHz
Frame rate : 93.750 FPS (512 SPF)
Bit depth : 24 bits
Compression mode : Lossless / Lossy
Delay relative to video : 42 ms
Stream size : 2.57 GiB (17%)
Title : Original
Language : English
Default : No
Forced : No

Audio #4
ID : 5
Format : AC-3
Format/Info : Audio Coding 3
Format settings, Endianness : Big
Codec ID : A_AC3
Duration : 1 h 27 min
Bit rate mode : Constant
Bit rate : 192 kb/s
Channel(s) : 2 channels
Channel positions : Front: L R
Sampling rate : 48.0 kHz
Frame rate : 31.250 FPS (1536 SPF)
Bit depth : 16 bits
Compression mode : Lossy
Stream size : 120 MiB (1%)
Title : Original
Language : English
Service kind : Complete Main
Default : No
Forced : No

Audio #5
ID : 6
Format : AC-3
Format/Info : Audio Coding 3
Mode : Dolby Digital
Format settings, Endianness : Big
Codec ID : A_AC3
Duration : 1 h 27 min
Bit rate mode : Constant
Bit rate : 192 kb/s
Channel(s) : 2 channels
Channel positions : Front: L R
Sampling rate : 48.0 kHz
Frame rate : 31.250 FPS (1536 SPF)
Bit depth : 16 bits
Compression mode : Lossy
Delay relative to video : 42 ms
Stream size : 120 MiB (1%)
Title : Original | Commentary Director George P. Cosmatos
Language : English
Service kind : Complete Main
Default : No
Forced : No

Text #1
ID : 7
Format : UTF-8
Codec ID : S_TEXT/UTF8
Codec ID/Info : UTF-8 Plain Text
Duration : 1 h 22 min
Bit rate : 54 b/s
Count of elements : 619
Stream size : 33.0 KiB (0%)
Title : Ukr (full)
Language : Ukrainian
Default : Yes
Forced : No

Text #2
ID : 8
Format : PGS
Muxing mode : zlib
Codec ID : S_HDMV/PGS
Codec ID/Info : Picture based subtitle format used on BDs/HD-DVDs
Duration : 1 h 26 min
Bit rate : 19.3 kb/s
Count of elements : 1344
Stream size : 11.9 MiB (0%)
Title : Eng (full)
Language : English
Default : No
Forced : No

Menu
00:00:00.000 : en:Heavy Metal (Credits)
00:02:51.045 : en:Supermarket Psycho
00:07:11.889 : en:The Way Of The New World
00:09:59.432 : en:Disease Meets Cure
00:13:11.624 : en:Room To Park (Suave)
00:16:44.545 : en:New Victims - And A Witness
00:21:39.923 : en:"Do What You Do Best"
00:22:59.002 : en:Working (Angel Of The City)
00:25:50.674 : en:Ingrid Attacked
00:29:10.915 : en:"She Knows Your Face"
00:33:24.752 : en:Hospital Stalker
00:37:48.182 : en:Blood Flows
00:42:39.723 : en:Somebody On The Inside
00:43:51.086 : en:Hot Wheels
00:50:53.675 : en:He's The Psycho
00:52:36.528 : en:Tell It To The Judge (Feel The Heat)
00:54:33.270 : en:A Tougher Name
00:57:04.003 : en:Crazy To Get Involved
00:59:41.995 : en:A Good Idea (Loving On Borrowed Time)
01:04:14.684 : en:Motel Mayhem
01:08:27.186 : en:Hitting The Road...Hard!
01:10:39.026 : en:The Factory
01:12:37.853 : en:Fire With Fire
01:14:44.897 : en:Where The Law Stops
01:17:32.689 : en:Hooked
01:20:08.470 : en:No Hard Feelings
01:22:39.621 : en:End Credits (Voice Of America's Sons)
Скріншоти
Джерело:
За запис з ICTV подяка п. slavik_v_z
За доріжку від 1+1 подяка п. robotron005, ProgBassing
За постер українською мовою подяка п. DareDevil96
Особиста оцінка: 10 - без зайвих вагань рекомендую всім!



Золотий реліз (завантажене не впливає на рейтинг)
 Трекер:    Зареєстрований   

Завантажити / скачати фільм українською



відео для новачків



 Зареєстрований:   2019-02-24 00:21
 Розмір:   15.17 GB 
 Оцінка фільму:   9.6/10 (Голосів: 10)
   
Інші релізи
   Кобра / Cobra (1986) AVC 2хUkr/Eng | Sub Ukr/Eng Arsenfpu  2 / 0   1.84 GB   2018-04-29 09:53 
   Кобра / Cobra (1986) 720p 2хUkr/Eng | Sub Ukr/Eng Hurtomivets'  1 / 0   5.56 GB   2011-09-10 18:00 
   Кобра / Cobra (1986) 2хUkr/Eng | Sub Ukr/Eng robotron005  3 / 0   1.92 GB   2011-03-19 21:43 
igor911 
Модератор відео


З нами з: 18.01.08
Востаннє: 11.12.19
Повідомлень: 13723

2019-02-24 10:28  
MakRA написано:
кодек:

треба виправити, тут VC-1

lokk234 
Новенький


З нами з: 05.03.14
Востаннє: 12.11.19
Повідомлень: 24

2019-02-24 12:49  
Ріс на таких фільмах))
Ваш часовий пояс: GMT + 2 Години

Нова тема   Відповісти