11 дітей з Моршина (2019)

Нові коментарі

Нова тема   Відповісти
Автор Повідомлення
Anonymous 







2019-02-23 20:20  
11 дітей з Моршина (2019)

Альтернативний постер:


Жанр: комедія
Країна: Україна



Кінокомпанія: Solar Media Entertainment, Міністерство культури України, Держкіно України
Режисер: Аркадій Непиталюк
Актори: Олена Лавренюк, Олександр Скічко, Сергій Бабкін, Ольга Фреймут, Сніжана Бабкіна

Сюжет:
Немає нічого неможливого для тих, чиє життя тільки починається! Купка дітлахів з українського курортного містечка вирішили погратися у дорослі ігри та організувати аферу століття. На що здатні 11 дітей з Моршина – можна лише здогадуватися.


Тривалість: 01:24:01
Якість: [Hurtom]

Відео:
кодек:
розмір кадру: 704 х 400
бітрейт: 2269 кб/с

Аудіо:
мова: українська, російська
переклад: оригінал
кодек: 2.0
бітрейт: 192 кб/с

Субтитри :
мова: українська (форсовані на репліки російською)
тип: вбудовані (жорсткі)
Info
Код:
General
Complete name               : 11 ditey z Morshyna (2019) [Ukr] [Hurtom].avi
Format                      : AVI
Format/Info                 : Audio Video Interleave
File size                   : 1.45 GiB
Duration                    : 1 h 24 min
Overall bit rate            : 2 470 kb/s
Movie name                  : 11 дітей з Моршина / 11 ditey z Morshyna (2019) [Ukr] [Hurtom]
Writing application         : VirtualDubModUkr 1.5.10.2 (build 2542/release)
Writing library             : VirtualDubMod build 2542/release

Video
ID                          : 0
Format                      : MPEG-4 Visual
Format profile              : Advanced [email protected]
Format settings             : BVOP1
Format settings, BVOP       : 1
Format settings, QPel       : No
Format settings, GMC        : No warppoints
Format settings, Matrix     : Default (MPEG)
Codec ID                    :
Codec ID/Hint               :
Duration                    : 1 h 24 min
Bit rate                    : 2 269 kb/s
Width                       : 704 pixels
Height                      : 400 pixels
Display aspect ratio        : 16:9
Frame rate                  : 25.000 FPS
Color space                 : YUV
Chroma subsampling          : 4:2:0
Bit depth                   : 8 bits
Scan type                   : Progressive
Compression mode            : Lossy
Bits/(Pixel*Frame)          : 0.322
Stream size                 : 1.33 GiB (92%)
Writing library             : 67

Audio
ID                          : 1
Format                      : AC-3
Format/Info                 : Audio Coding 3
Commercial name             : Dolby Digital
Codec ID                    : 2000
Duration                    : 1 h 24 min
Bit rate mode               : Constant
Bit rate                    : 192 kb/s
Channel(s)                  : 2 channels
Channel layout              : L R
Sampling rate               : 48.0 kHz
Frame rate                  : 31.250 FPS (1536 SPF)
Bit depth                   : 16 bits
Compression mode            : Lossy
Stream size                 : 115 MiB (8%)
Alignment                   : Split accross interleaves
Interleave, duration        : 40  ms (1.00 video frame)
Interleave, preload duratio : 500  ms
Service kind                : Complete Main


Підтримати купівлю інших фільмів можна тут.


Джерело:
Подяка AngryBirdsUA.



Золотий реліз (завантажене не впливає на рейтинг)
 Трекер:    Зареєстрований   

Завантажити / скачати український фільм



відео для новачків



 Зареєстрований:   2019-02-23 22:38
 Розмір:   1.45 GB 
 Оцінка фільму:   8.1/10 (Голосів: 62)
   
holxas 
Попереджень: 1
Попереджень: 1 


З нами з: 22.07.18
Востаннє: 17.12.19
Повідомлень: 9

2019-02-24 18:49  
Хотів ще запитати, навіщо робити торент приватним? Це ж не дає можливості пошуку локальних пирів та пришвидшує "вимирання" релізу?
Скріншоти



Anonymous 







2019-02-24 19:11  
holxas, дякую.
ssTAss 
Модератор музики


З нами з: 05.07.08
Востаннє: 03.03.21
Повідомлень: 17415

2019-02-24 19:16  
holxas написано:
Скріншоти

прохання заливати скріни на наш сервіс https://img.hurtom.com/

Givi 
Модератор відео


З нами з: 25.02.08
Востаннє: 02.03.21
Повідомлень: 2978

2019-03-16 13:50  
Нормуль, посміхнуло Happy
andriy_nv 
VIP


З нами з: 27.06.08
Востаннє: 02.03.21
Повідомлень: 1131

2019-03-28 18:14  
таке собі
stryiko 
Свій


З нами з: 18.08.09
Востаннє: 23.02.21
Повідомлень: 74

2019-04-26 11:45  
Маячня повна! Все!
antik_2008 
Релізер і модератор відео


З нами з: 20.10.08
Востаннє: 03.03.21
Повідомлень: 4701

2019-07-28 22:24  
6 / 10
putinhuilo_ 
Новенький


З нами з: 08.03.18
Востаннє: 22.02.21
Повідомлень: 10

2020-02-28 00:42  
дивна річ... подивився по діагоналі, ну таке собі думаю, фігня. але дитина 8 років була у захваті! друга дитина 15 років каже: "маячня", але стілець підставила, весь фільм продивилася. Потім сказала, що прикольне кіно.
Висновок: фільми для дітей мають дивитись ДІТИ!!!!!!!
батьки, як на мене, мають дбати про мораль, якісь глобально-дидактичні речі, насильство-сіські-піські, а конкретні висновки мають робити глядачі таргет-групи.
мені дуже різало очі відверто погана гра дітей, переграші дорослих акторів, ходульні режисерські якісь там речі( я навіть не пам"ятаю вже, що там було до чого))), але мої особисто діти побачили у фільми щось зовсім інше, і це інше їм дуже сподобалось...

Ваш часовий пояс: GMT + 2 Години

Нова тема   Відповісти