Догмен / Dogman (2018) 1080p Ukr/Ita | Sub Eng

Нові коментарі

Нова тема   Відповісти
Автор Повідомлення
AngryBirdsUA 
Свій


З нами з: 24.02.10
Востаннє: 08.12.19
Повідомлень: 3147

2019-02-23 19:48  
Догмен / Dogman (2018) 1080p Ukr/Ita | Sub Eng


Жанр: драма, кримінальний, трилер
Країна: Італія, Франція



Кінокомпанія: Archimede, Le Pacte, Rai Cinema
Режисер: Маттео Гарроне
Актори: Марчелло Фонте, Едоардо Пеше, Нундзіа Скьяно, Адамо Діонізі, Франческо Акваролі, Джанлука Гоббі, Аліда Бальдарі Калабрія, Лаура Піццірані, Джанкарло Поркачча, Аньєлло Арена

Сюжет:
Марчелло – маленька людина з великим серцем та сумними очима. Він тримає перукарню для собак «Догмен» та вміє приборкати ласкавим словом і пітбуля, і місцевого громилу Сімоне, який тероризує всю округу. Марчелло мріє відвезти улюблену доньку у далеку подорож, але по доброті душевній супроводжує Сімоне у його кримінальних вилазках, та одного разу це призводить до катастрофи. Відданий другу, Марчелло вперше у житті зважується оголосити справжню війну.


Тривалість: 01:42:47
Якість:
Відео:
кодек:
розмір кадру: 1920 х 808
бітрейт: 12190 кб/с

Аудіо # 1:
мова: українська
переклад: багатоголосий закадровий
кодек: 5.1
бітрейт: 384 кб/с

Аудіо # 2:
мова: італійська
переклад: оригінал
кодек: 5.1
бітрейт: 1509 кб/с

Субтитри:
мова: англійська
тип: програмні (м'які)
формат: *.srt
Info
Код:
General
Unique ID                   : 220343206705169060301962055517605124692 (0xA5C48ED80308235D44B103411422DA54)
Complete name               : J:\Dogman (2018) 1080p [Ukr.Ita] [Sub Eng] [Hurtom].
Format                      :
Format version              : Version 4
File size                   : 10.1 GiB
Duration                    : 1 h 42 min
Overall bit rate            : 14.1 Mb/s
Encoded date                : UTC 2019-02-23 07:38:10
Writing application         : v19.0.0 ('Brave Captain') 64-bit
Writing library             : libebml v1.3.5 + v1.4.8
Attachments                 : poster.jpg

Video
ID                          : 1
Format                      : AVC
Format/Info                 : Advanced Video Codec
Format profile              : [email protected]
Format settings             : CABAC / 5 Ref Frames
Format settings, CABAC      : Yes
Format settings, ReFrames   : 5 frames
Codec ID                    : V_MPEG4/ISO/AVC
Duration                    : 1 h 42 min
Bit rate                    : 12.2 Mb/s
Width                       : 1 920 pixels
Height                      : 808 pixels
Display aspect ratio        : 2.40:1
Frame rate mode             : Constant
Frame rate                  : 24.000 FPS
Color space                 : YUV
Chroma subsampling          : 4:2:0
Bit depth                   : 8 bits
Scan type                   : Progressive
Bits/(Pixel*Frame)          : 0.327
Stream size                 : 8.74 GiB (87%)
Writing library             : core 157 r2935 545de2f
Encoding settings           : cabac=1 / ref=5 / deblock=1:-3:-3 / analyse=0x3:0x133 / me=umh / subme=10 / psy=1 / psy_rd=1.00:0.15 / mixed_ref=1 / me_range=32 / chroma_me=1 / trellis=2 / 8x8dct=1 / cqm=0 / deadzone=21,11 / fast_pskip=0 / chroma_qp_offset=-3 / threads=25 / lookahead_threads=4 / sliced_threads=0 / nr=0 / decimate=1 / interlaced=0 / bluray_compat=0 / constrained_intra=0 / bframes=8 / b_pyramid=2 / b_adapt=2 / b_bias=0 / direct=3 / weightb=1 / open_gop=0 / weightp=2 / keyint=240 / keyint_min=24 / scenecut=40 / intra_refresh=0 / rc_lookahead=60 / rc=2pass / mbtree=1 / bitrate=12190 / ratetol=1.0 / qcomp=0.60 / qpmin=0 / qpmax=69 / qpstep=4 / cplxblur=20.0 / qblur=0.5 / ip_ratio=1.40 / aq=3:0.90
Default                     : Yes
Forced                      : No

Audio #1
ID                          : 2
Format                      : AC-3
Format/Info                 : Audio Coding 3
Commercial name             : Dolby Digital
Codec ID                    : A_AC3
Duration                    : 1 h 42 min
Bit rate mode               : Constant
Bit rate                    : 384 kb/s
Channel(s)                  : 6 channels
Channel layout              : L R C LFE Ls Rs
Sampling rate               : 48.0 kHz
Frame rate                  : 31.250 FPS (1536 SPF)
Bit depth                   : 16 bits
Compression mode            : Lossy
Stream size                 : 282 MiB (3%)
Language                    : Ukrainian
Service kind                : Complete Main
Default                     : Yes
Forced                      : No

Audio #2
ID                          : 3
Format                      :
Format/Info                 : Digital Theater Systems
Codec ID                    : A_DTS
Duration                    : 1 h 42 min
Bit rate mode               : Constant
Bit rate                    : 1 509 kb/s
Channel(s)                  : 6 channels
Channel layout              : C L R Ls Rs LFE
Sampling rate               : 48.0 kHz
Frame rate                  : 93.750 FPS (512 SPF)
Bit depth                   : 24 bits
Compression mode            : Lossy
Stream size                 : 1.08 GiB (11%)
Language                    : Italian
Default                     : No
Forced                      : No

Text
ID                          : 4
Format                      : UTF-8
Codec ID                    : S_TEXT/UTF8
Codec ID/Info               : UTF-8 Plain Text
Duration                    : 1 h 31 min
Bit rate                    : 30 b/s
Count of elements           : 696
Stream size                 : 20.8 KiB (0%)
Language                    : English
Default                     : Yes
Forced                      : No



Джерело:
Особиста оцінка: 0 - не дивився


 Трекер:    Зареєстрований   

Завантажити / скачати фільм українською



відео для новачків



 Зареєстрований:   2019-02-23 19:48
 Розмір:   10.11 GB 
 Оцінка фільму:   8.5/10 (Голосів: 8)
   
Інші релізи
   Догмен / Dogman (2018) antik_2008  10 / 0   1.33 GB   2019-02-24 11:26 
   Догмен / Dogman (2018) 720p Ukr/Ita | Sub Eng 11FrYkT  5 / 0   4.97 GB   2019-02-23 19:53 
   Догмен / Dogman (2018) AVC AngryBirdsUA  16 / 0   1.57 GB   2019-02-23 19:49 
Ваш часовий пояс: GMT + 2 Години

Нова тема   Відповісти