Герої в масках / PJ Masks (Сезон 2) (2018) 1080p

Нові коментарі

Нова тема   Відповісти
Автор Повідомлення
sergiyko.5 
Забанено
Забанено


З нами з: 25.02.16
Востаннє: 29.10.20
Повідомлень: 3648

2019-02-23 11:57  


Герої в масках / PJ Masks (Сезон 2) (2018) 1080p

Герої в масках / PJ Masks (Сезон 2) (2018) 1080p

Жанр: анімація, пригоди
Країна: Франція, Велика Британія
Режисер: Крістіан Де Віта, Мерлі-Енн Рідлі, Уілсон Дос Сантос
Актори/ролі озвучують: Кейлі Бріткопф, Едісон Ґолей, Якоб Іванюк

Сюжет:
Знайомтеся з новою командою супергероїв! Тепер на сторожі миру та спокою землян - "Герої в масках". Вдень це звичайні 6-річні діти: хлопчики Конор, Грег та їхня вірна помічниця Амайя, але з приходом ночі команда перетворюється на супергероїв, які готові допомогти всім, хто потрапив у біду. Яскраві костюми і браслети наділяють героїв неймовірними силами та здібностями, необхідними для вирішення складних завдань. Грег стає володарем сили, могутності й таланту маскування рептилій. Конор отримує котячу спритність, а Амайя одержує совину мудрість. Тому команда з легкістю долає з ворогів і будь-які проблеми. Головне тепер - злагоджені дії!




Тривалість: 1 серія: 23:02 (цілком серій: 26 з 26)
Якість:

Відео: кодек: розмір кадру: 1920 х 1080 бітрейт: 2700 кб/с
Аудіо: мова: українська переклад: професійний дубльований кодек: 2.0ch бітрейт: 192 кб/с [ Stereo ]
Озвучення:

Примітка: українська доріжка записана з супутникової трансляції телеканала ПлюсПлюс і синхронізована під HD відео.
Перелік серій
01 Місячні кульки / Ніндзяліно – футболісти
02 Лайонел-завр / Іграшка Кетбоя
03 Малюки-капризуни / Совці з Луною – біда
04 Котяча ніч / Кетбой знову за своє
05 Ніндзя Нетлі / Хто має совину силу
06 Геройський пінбол / Стриботрон
07 Робот у масці / Герої дужчають
08 Скажені платформи / Ромео замаскувався
09 На Місяці
10 Котик для робота / Гекко – володар глибин
11 Хай переможе найкращий / Місяць тріснув
12 Гонитва таємничою горою / В'язень гори
13 Вовченята / Вовкозавр
14 Більше не Кетбой / Гекко проти вулкана з ляпок
15 Знайомство з Армаділаном / Совка-невидимка
16 Вовча гора / Кристально-блискучий план Ромео
17 Нічий спільник / Армаділан – гроза злодіїв
18 Сила рдезника / Зізнання Совки
19 Геловінські шахраї
20 Вовки захоплюють штаб / Добрий вовк
21 Вовчий план / Викрадення ящірки
22 Герой Ділан / Небезпечний по-армаділанськи
23 Іграшки Ромео / Драконячий гонг
24 Політ ніндзя / Гірка Ромео
25 Гекко та змінювач / Герої проти об'єднаних лиходіїв
26 Великодні вовки / Луна і вовченята
Про файл:
General
Unique ID : 7961199972886441406600122604550814910 (0x5FD4576AD155A9A764F5BDA1A26FCBE)
Complete name : G:\Torrents2\MULT\MuSERIAL\PJ Masks 1080p \PJ Masks S02 1080p \S02E01.Moonfizzle Balls-Soccer Ninjalinos.1080p..
Format :
Format version : Version 4
File size : 474 MiB
Duration : 23 min 2 s
Overall bit rate : 2 876 kb/s
Movie name : PJ Masks S02 1080p by sergiyko
Encoded date : UTC 2019-02-23 08:49:47
Writing application : v30.0.0 ('Interstellar') 64-bit
Writing library : libebml v1.3.6 + v1.4.9

Video
ID : 1
Format : AVC
Format/Info : Advanced Video Codec
Format profile : [email protected]
Format settings : CABAC / 6 Ref Frames
Format settings, CABAC : Yes
Format settings, ReFrames : 6 frames
Codec ID : V_MPEG4/ISO/AVC
Duration : 23 min 2 s
Bit rate : 2 682 kb/s
Width : 1 920 pixels
Height : 1 080 pixels
Display aspect ratio : 16:9
Frame rate mode : Constant
Frame rate : 25.000 FPS
Color space : YUV
Chroma subsampling : 4:2:0
Bit depth : 8 bits
Scan type : Progressive
Bits/(Pixel*Frame) : 0.052
Stream size : 442 MiB (93%)
Title : S02E01.Moonfizzle Balls-Soccer Ninjalinos
Language : English
Default : Yes
Forced : No

Audio
ID : 2
Format : AC-3
Format/Info : Audio Coding 3
Commercial name : Dolby Digital
Codec ID : A_AC3
Duration : 23 min 2 s
Bit rate mode : Constant
Bit rate : 192 kb/s
Channel(s) : 2 channels
Channel layout : L R
Sampling rate : 48.0 kHz
Frame rate : 31.250 FPS (1536 SPF)
Bit depth : 16 bits
Compression mode : Lossy
Stream size : 31.6 MiB (7%)
Title : DUB 2ch | ПлюсПлюс
Language : Ukrainian
Service kind : Complete Main
Default : Yes
Forced : No
Скріншоти:



Запис/синхронізація: sergiyko


Бронзовий реліз (на рейтинг впливає 75% завантаженого)
 Трекер:    Зареєстрований   

Завантажити / скачати мультфільм українською



відео для новачків



 Зареєстрований:   2019-03-20 22:48
 Розмір:   12.4 GB 
 Оцінка мультсеріалу:   9.9/10 (Голосів: 33)
   
neskvikif 
Попереджень: 2
Попереджень: 2 


З нами з: 07.10.09
Востаннє: 13.12.20
Повідомлень: 8

2019-03-06 17:53  
UP UP
sergiyko.5 
Забанено
Забанено


З нами з: 25.02.16
Востаннє: 29.10.20
Повідомлень: 3648

2019-03-20 22:54  
Додав серії до повного сезону. Приємного перегляду!
Ваш часовий пояс: GMT + 2 Години

Нова тема   Відповісти