11 дітей з Моршина (2019) AVC

Нові коментарі

Нова тема   Відповісти
Автор Повідомлення
AngryBirdsUA 
Свій


З нами з: 24.02.10
Востаннє: 04.03.21
Повідомлень: 3151

2019-02-23 09:14  
11 дітей з Моршина (2019) AVC


Альтернативний постер

Жанр: комедія
Країна: Україна



Кінокомпанія: Solar Media Entertainment
Режисер: Аркадій Непиталюк
Актори: Олена Лавренюк, Олександр Скічко, Сергій Бабкін, Ольга Фреймут, Сніжана Бабкіна

Сюжет:
Немає нічого неможливого для тих, чиє життя тільки починається! Купка дітлахів з українського курортного містечка вирішили погратися у дорослі ігри та організувати аферу століття. На що здатні 11 дітей з Моршина – можна лише здогадуватися.


Тривалість: 01:24:01
Якість: AVC

Відео:
кодек:
розмір кадру: 1024 х 576
бітрейт: 1700 кб/с

Аудіо:
мова: українська, російська
переклад: оригінал
кодек: 2.0
бітрейт: 192 кб/с

Субтитри (Forced):
мова: українська
тип: вбудовані (жорсткі)
примітка: там де розмовляють російською
Info
Код:
General
Unique ID                   : 11747018359294334308666310877016123058 (0x8D664B895C0BFE53A4C232AF59666B2)
Complete name               : C:\Users\bender\Downloads\1253.
Format                      :
Format version              : Version 4
File size                   : 1.11 GiB
Duration                    : 1 h 24 min
Overall bit rate            : 1 895 kb/s
Encoded date                : UTC 2019-02-22 10:30:13
Writing application         : HandBrake 1.2.0 2018121700
Writing library             : Lavf58.20.100
ErrorDetectionType          : Per level 1

Video
ID                          : 1
Format                      : AVC
Format/Info                 : Advanced Video Codec
Format profile              : [email protected]
Format settings             : CABAC / 8 Ref Frames
Format settings, CABAC      : Yes
Format settings, ReFrames   : 8 frames
Codec ID                    : V_MPEG4/ISO/AVC
Duration                    : 1 h 24 min
Bit rate                    : 1 700 kb/s
Width                       : 1 024 pixels
Height                      : 576 pixels
Display aspect ratio        : 16:9
Frame rate mode             : Constant
Frame rate                  : 25.000 FPS
Color space                 : YUV
Chroma subsampling          : 4:2:0
Bit depth                   : 8 bits
Scan type                   : Progressive
Bits/(Pixel*Frame)          : 0.115
Stream size                 : 1 001 MiB (88%)
Writing library             : core 157 r2935 545de2f
Encoding settings           : cabac=1 / ref=8 / deblock=1:-1:-1 / analyse=0x1:0x131 / me=umh / subme=9 / psy=1 / psy_rd=1.00:0.15 / mixed_ref=1 / me_range=16 / chroma_me=1 / trellis=2 / 8x8dct=0 / cqm=0 / deadzone=21,11 / fast_pskip=1 / chroma_qp_offset=-3 / threads=12 / lookahead_threads=1 / sliced_threads=0 / nr=0 / decimate=1 / interlaced=0 / bluray_compat=0 / constrained_intra=0 / bframes=3 / b_pyramid=2 / b_adapt=2 / b_bias=0 / direct=3 / weightb=1 / open_gop=0 / weightp=2 / keyint=250 / keyint_min=25 / scenecut=40 / intra_refresh=0 / rc_lookahead=60 / rc=2pass / mbtree=1 / bitrate=1700 / ratetol=1.0 / qcomp=0.60 / qpmin=0 / qpmax=69 / qpstep=4 / cplxblur=20.0 / qblur=0.5 / vbv_maxrate=50000 / vbv_bufsize=62500 / nal_hrd=none / filler=0 / ip_ratio=1.40 / aq=1:1.00
Default                     : Yes
Forced                      : No
Color range                 : Limited
Color primaries             : BT.709
Transfer characteristics    : BT.709
Matrix coefficients         : BT.709

Audio
ID                          : 2
Format                      : AC-3
Format/Info                 : Audio Coding 3
Commercial name             : Dolby Digital
Codec ID                    : A_AC3
Duration                    : 1 h 24 min
Bit rate mode               : Constant
Bit rate                    : 192 kb/s
Channel(s)                  : 2 channels
Channel layout              : L R
Sampling rate               : 48.0 kHz
Frame rate                  : 31.250 FPS (1536 SPF)
Bit depth                   : 16 bits
Compression mode            : Lossy
Delay relative to video     : -5 ms
Stream size                 : 115 MiB (10%)
Title                       : Stereo
Service kind                : Complete Main
Default                     : Yes
Forced                      : No



Підтримати купівлю інших фільмів можна тут.


Джерело:
Особиста оцінка: 0 - не дивився



Золотий реліз (завантажене не впливає на рейтинг)
 Трекер:    Зареєстрований   

Завантажити / скачати український фільм



відео для новачків



 Зареєстрований:   2019-02-23 09:14
 Розмір:   1.11 GB 
 Оцінка фільму:   7.1/10 (Голосів: 33)
   
bogdan8249 
Відео Гуртом - фільмокрай
Відео Гуртом - фільмокрай


З нами з: 09.08.08
Востаннє: 04.03.21
Повідомлень: 1240

2019-02-23 14:17  
Цитата:
11 дітей з Моршина

Назва суперова.
Цитата:
примітка: там де розмовляють російською

Так тримати.

Djohnnikey 
VIP


З нами з: 01.10.15
Востаннє: 03.03.21
Повідомлень: 461

2020-08-13 21:30  
Дуже складні враження від фільму. Що це було? Лубок? Шарж? Гротескна пародія?
Фільму не віриш від самого початку: від сцени з виходом з тюрми. Це точно українська була в'язниця й з неї вийшов хлопець, який рік відсидів? Не помився, не поголився, й відразу поїхав "вирішувати справи"... Причому фейли продовжуються постійно: головний герої сів на заднє сидіння, їхав на задньому сидінні, а вийшов... з переднього! Млинець вам на голову (це замість матюків, якщо що)! ну як так?! Ви ж на цьому увагу акцентували!
Про правдоподібність:
Її тут немає від слова взагалі. Наприклад, у Моршині (з населенням 5800 людей) є "золотий" торговельний центр, для якого мільйон - не гроші. Серйозно? Рентабельність, самоокупність - про ці ринкові поняття сценаристи не чули.
Голову ДК тут теж ніхто в обличчя не знає? У місті в якому менше 6 тисяч людей, й де є великий торговельний центр в якому, скоріш за все, має бути розважальна програма...
Діти з Моршина
Прикольно, що весь фільм супроводжує афіша фільму - ледь не єдиний іронічний момент. Проте дітей у фільмі майже немає (вони - епізодичний персонаж, який майже не впливає на сюжет). Й зрозуміло чому:
Акторська гра
Акторська гра рівня... Думка не толерантна, але щось там виправдано може бути, тільки якщо більшість акторів зі справкою. Довідкою про розумову відсталість. Діти, які представляються як "дуже талановиті", не грають взагалі. ІМХО, візьми випадкових 11 дітей з вулиці, й хоча б в одного з них знайшлося б більше таланту. Вочевидь, зокрема й тому у дітей епізодична роль у фільмі, який позиціонується як фільм ПРО дітей.
Але подібного рівня акторська гра тут у всіх. Є відчуття, що цих усіх понабирали з вулиці Людей з двома лівими ногами.
Якщо вірити "Вікіпедії", то Олександр Піскунов (виконавець головної ролі) закінчив КНУТКіТ ім. Карпенка-Карого, курс Дмитра Богомазова та "
Цитата:
Грає драматичні ролі, проте мріє про комедію.
"
Виконання його мрії змушує закривати очі та виривати на собі волосся.
Сценарій
А що, він був?.. Бо більшість епізодів не пов'язано та логіки немає ніякої.
Зашквар
Що там роблять Ада Роговцева та "Дах Дотерс" (це ж були вони?) - незрозуміло. Тільки заробляють гроши?
Патріотизм
Фільм переміг у першому конкурсі стрічок патріотичного спрямування від Міністерства культури України та отримав 10, 5 лямів від держави. За що? Й на що?! Де тут патріотизм? У грі "дітей з Моршина"?..
Підсумок
Ні, ну а що, а так усе гаразд. Дружина продюсера знайшла собі роботу, рєбзя підняло бабло. Да...
А що з українським кінематографом? А що з ним... усе гаразд. Пульсу немає.
1 з 10.

Iceberg9375 
Новенький


З нами з: 25.12.16
Востаннє: 11.01.21
Повідомлень: 1

2020-09-26 21:35  
лайно повне, а не фільм.

НЕ РЕКОМЕНДУЮ

Ваш часовий пояс: GMT + 2 Години

Нова тема   Відповісти