Веном / Venom (2018) 1080p Ukr/Eng | Sub Ukr/Eng (60 fps)

Нові коментарі

Нова тема   Відповісти
Автор Повідомлення
Drool 
VIP


З нами з: 17.04.10
Востаннє: 11.12.19
Повідомлень: 1523

2019-02-22 14:41  
Веном / Venom (2018) 1080p Ukr/Eng | Sub Ukr/Eng (60 fps)
Трейлер

Жанр: бойовик, жахи, трилер, фантастика
Країна: США


Діти до 13 років допускаються на фільм тільки з батьками
Настійне застереження батькам. Деякий матеріал може бути невідповідним для дітей до 13 років. Цей рейтинг показує, що оцінений фільм може бути невідповідним для дітей. Батьки повинні бути особливо обережні, дозволяючи своїм маленьким дітям перегляд. Грубе або тривале насильство відсутнє; сексуальна орієнтація на наготу відсутня; деякі сцени вживання наркотиків можуть бути присутніми; можна почути одиничні вживання грубої сексуальної лексики. Присутня епізодична оголеність (не враховуючи репродуктивні органи). Присутні сексуальні натяки і натяки на гомосексуалізм чи сексуальні збочення.
Кінокомпанія: Avi Arad Productions, Columbia Pictures Corporation, Marvel Entertainment
Режисер: Рубен Флейшер
Актори: Том Харді, Мішель Вільямс, Марчелла Браджіо, Вуді Гаррельсон, Дженні Слейт, Різ Ахмед, Мак Брандт, Рон Сепас Джонс

Сюжет:
Історія журналіста Едді Брока, який є колегою і суперником Пітера Паркера. Одного разу в нього вселяється інопланетний паразит, і Брок перетворюється в мстиву істоту на ім'я Веном.


Тривалість: 01:48:46 (відсутня реклама мультика після титрів)
Якість: 1080p
Відео:
кодек:
розмір кадру: 1920x800
бітрейт: 9844 кб/с
кадрів на секунду: 60.000 к/с
CRF: 18.0

Аудіо # 1:
мова: українська
переклад: професійний дубльований
кодек: 5.1
бітрейт: 640 кб/с

Аудіо # 2:
мова: англійська
переклад: оригінал
кодек: 5.1
бітрейт: 1509 кб/с

Субтитри # 1, 2 (форсовані + повні):
мова: українська
тип: програмні (м'які)
формат: *.srt

Субтитри # 3, 4 (повні + SDH):
мова: англійська
тип: програмні (м'які)
формат: *.srt
Info
Код:
General
Unique ID                                : 221756982552629899934040931381672151369 (0xA6D4D75FEDC378A61A2D0E4BC8740949)
Complete name                            : /mnt/disk/Video/Films/Venom.2018.Ukr.Dub..1080p.60fps.
Format                                   :
Format version                           : Version 4 / Version 2
File size                                : 9.11 GiB
Duration                                 : 1 h 48 min
Overall bit rate                         : 12.0 Mb/s
Movie name                               : Веном / Venom (2018) 1080p Ukr/Eng | Sub Ukr/Eng (60 fps) | NNNB
Encoded date                             : UTC 2019-03-01 13:13:36
Writing application                      : v8.2.0 ('World of Adventure') 64bit
Writing library                          : libebml v1.3.1 + v1.4.2
Cover                                    : Yes
Attachments                              : cover.png

Video
ID                                       : 1
Format                                   : AVC
Format/Info                              : Advanced Video Codec
Format profile                           : [email protected]
Format settings                          : CABAC / 5 Ref Frames
Format settings, CABAC                   : Yes
Format settings, RefFrames               : 5 frames
Codec ID                                 : V_MPEG4/ISO/AVC
Duration                                 : 1 h 48 min
Bit rate                                 : 9 844 kb/s
Width                                    : 1 920 pixels
Height                                   : 800 pixels
Display aspect ratio                     : 2.40:1
Frame rate mode                          : Constant
Frame rate                               : 60.000 FPS
Color space                              : YUV
Chroma subsampling                       : 4:2:0
Bit depth                                : 8 bits
Scan type                                : Progressive
Bits/(Pixel*Frame)                       : 0.107
Stream size                              : 7.48 GiB (82%)
Title                                    : Веном / Venom (2018) 1080p Ukr/Eng | Sub Ukr/Eng (60 fps) | NNNB
Writing library                          : core 155 r2901 7d0ff22
Encoding settings                        : cabac=1 / ref=5 / deblock=1:0:0 / analyse=0x3:0x113 / me=umh / subme=11 / psy=1 / psy_rd=1.00:0.00 / mixed_ref=1 / me_range=32 / chroma_me=1 / trellis=2 / 8x8dct=1 / cqm=0 / deadzone=21,11 / fast_pskip=0 / chroma_qp_offset=-2 / threads=18 / lookahead_threads=4 / sliced_threads=0 / nr=0 / decimate=0 / interlaced=0 / bluray_compat=0 / constrained_intra=0 / bframes=10 / b_pyramid=2 / b_adapt=2 / b_bias=0 / direct=3 / weightb=0 / open_gop=0 / weightp=2 / keyint=250 / keyint_min=25 / scenecut=40 / intra_refresh=0 / rc_lookahead=40 / rc=crf / mbtree=0 / crf=18.0 / qcomp=0.60 / qpmin=0 / qpmax=69 / qpstep=4 / vbv_maxrate=50000 / vbv_bufsize=62500 / crf_max=0.0 / nal_hrd=none / filler=0 / ip_ratio=1.40 / pb_ratio=1.30 / aq=1:1.00
Default                                  : Yes
Forced                                   : Yes

Audio #1
ID                                       : 2
Format                                   : AC-3
Format/Info                              : Audio Coding 3
Format settings, Endianness              : Big
Codec ID                                 : A_AC3
Duration                                 : 1 h 47 min
Bit rate mode                            : Constant
Bit rate                                 : 640 kb/s
Channel(s)                               : 6 channels
Channel positions                        : Front: L C R, Side: L R, LFE
Sampling rate                            : 48.0 kHz
Frame rate                               : 31.250 FPS (1536 SPF)
Bit depth                                : 16 bits
Compression mode                         : Lossy
Stream size                              : 492 MiB (5%)
Title                                    : 5.1 @ 640 kbps
Language                                 : Ukrainian
Service kind                             : Complete Main
Default                                  : Yes
Forced                                   : Yes

Audio #2
ID                                       : 3
Format                                   :
Format/Info                              : Digital Theater Systems
Mode                                     : 16
Format settings, Endianness              : Big
Codec ID                                 : A_DTS
Duration                                 : 1 h 48 min
Bit rate mode                            : Constant
Bit rate                                 : 1 510 kb/s
Channel(s)                               : 6 channels
Channel positions                        : Front: L C R, Side: L R, LFE
Sampling rate                            : 48.0 kHz
Frame rate                               : 93.750 FPS (512 SPF)
Bit depth                                : 24 bits
Compression mode                         : Lossy
Stream size                              : 1.15 GiB (13%)
Title                                    : 5.1 1509 kb/s
Language                                 : English
Default                                  : No
Forced                                   : No

Text #1
ID                                       : 4
Format                                   : UTF-8
Codec ID                                 : S_TEXT/UTF8
Codec ID/Info                            : UTF-8 Plain Text
Duration                                 : 1 h 32 min
Bit rate                                 : 0 b/s
Count of elements                        : 6
Stream size                              : 172 Bytes (0%)
Title                                    : Forced
Language                                 : Ukrainian
Default                                  : Yes
Forced                                   : Yes

Text #2
ID                                       : 5
Format                                   : UTF-8
Codec ID                                 : S_TEXT/UTF8
Codec ID/Info                            : UTF-8 Plain Text
Duration                                 : 1 h 34 min
Bit rate                                 : 97 b/s
Count of elements                        : 1368
Stream size                              : 68.0 KiB (0%)
Title                                    : Full
Language                                 : Ukrainian
Default                                  : No
Forced                                   : No

Text #3
ID                                       : 6
Format                                   : UTF-8
Codec ID                                 : S_TEXT/UTF8
Codec ID/Info                            : UTF-8 Plain Text
Duration                                 : 1 h 34 min
Bit rate                                 : 62 b/s
Count of elements                        : 1328
Stream size                              : 43.6 KiB (0%)
Title                                    : Full
Language                                 : English
Default                                  : No
Forced                                   : No

Text #4
ID                                       : 7
Format                                   : UTF-8
Codec ID                                 : S_TEXT/UTF8
Codec ID/Info                            : UTF-8 Plain Text
Duration                                 : 1 h 34 min
Bit rate                                 : 82 b/s
Count of elements                        : 1781
Stream size                              : 57.1 KiB (0%)
Title                                    : SDH
Language                                 : English
Default                                  : No
Forced                                   : No
Скріншоти
Джерело відеоряду:
Аудіодоріжки та субтитри взято з релізу 720p.
Особиста оцінка: 8 - мені сподобалося


 Трекер:    Зареєстрований   

Завантажити / скачати фільм українською



відео для новачків



 Зареєстрований:   2019-03-02 11:16
 Розмір:   9.11 GB 
 Оцінка фільму:   8.6/10 (Голосів: 19)
   
Інші релізи
   Веном / Venom (2018) Ukr/Eng antik_2008  26 / 0   2.18 GB   2019-01-07 01:40 
   Веном / Venom (2018) 1080p 3D [Half OverUnder] Ukr/Eng | Sub Ukr/Eng antik_2008  0 / 0   10.8 GB   2019-01-07 00:06 
   Веном / Venom (2018) UHD 4K 2160p H.265 Ukr/Eng | Sub Ukr/Eng antik_2008  3 / 0   21.44 GB   2019-01-06 02:18 
   Веном / Venom (2018) UHD Remux 4K 2160p HDR H.265 Ukr/Eng | Sub Ukr/Eng antik_2008  5 / 0   46.63 GB   2019-01-06 01:51 
   Веном / Venom (2018) Remux 1080p Ukr/Eng | Sub Ukr/Eng antik_2008  3 / 0   28.25 GB   2019-01-06 01:09 
   Веном / Venom (2018) 1080p Ukr/Eng | Sub Ukr/Eng antik_2008  10 / 0   9.92 GB   2019-01-06 00:56 
   Веном / Venom (2018) uafilm.tv  16 / 0   1.46 GB   2019-01-05 13:01 
   Веном / Venom (2018) AVC Ukr/Eng | Sub Ukr/Eng 11FrYkT  11 / 0   2.16 GB   2019-01-05 12:49 
   Веном / Venom (2018) 720p Ukr/Eng | Sub Ukr/Eng 11FrYkT  17 / 0   5.16 GB   2019-01-05 10:59 
bot 
робот


З нами з: 30.09.07
Востаннє: 26.05.05
Повідомлень: 22618

2019-02-22 14:48  
Тему перенесено з Фільми в HD до форуму Анонси релізів


Drool

kryk-v.ya. 
Попереджень: 1
Попереджень: 1 


З нами з: 14.02.14
Востаннє: 12.12.19
Повідомлень: 1705

2019-02-22 14:52  
+
бомба, нарешті є 60фпс.

Drool 
VIP


З нами з: 17.04.10
Востаннє: 11.12.19
Повідомлень: 1523

2019-02-22 15:42  
kryk-v.ya. написано:
бомба, нарешті є 60фпс.
Ще не впевнений. Там, де нормальне залізо - немає звука на компі, де є звук - не тягне залізо. Не можу зрозуміти, чи є розсинхрон відео та аудіо, чи немає...
zoomymba2012 
VIP


З нами з: 08.01.15
Востаннє: 11.12.19
Повідомлень: 654

2019-02-22 17:44  
Drool написано:
Діти до 13 років допускаються на фільм тільки з батьками

Геніально, для релізу торрента...

kryk-v.ya. 
Попереджень: 1
Попереджень: 1 


З нами з: 14.02.14
Востаннє: 12.12.19
Повідомлень: 1705

2019-02-22 17:47  
Drool
нічого...пробуйте і получиться...це класний формат, тут він має бути я так вважаю...(памятаю не ексі цілий розділ був...і де поділися ці релізери разом з файлами...)

Drool 
VIP


З нами з: 17.04.10
Востаннє: 11.12.19
Повідомлень: 1523

2019-02-22 19:13  
zoomymba2012 написано:
Геніально, для релізу торрента...
Ви щось маєте проти системи рейтингів Американської кіноасоціації?
bot 
робот


З нами з: 30.09.07
Востаннє: 26.05.05
Повідомлень: 22618

2019-03-02 11:16  
Тему перенесено з Анонси релізів до форуму Фільми в HD


Drool

Fizik419 
Новенький


З нами з: 13.05.15
Востаннє: 11.12.19
Повідомлень: 15

2019-11-18 01:37  
kryk-v.ya. написано:
бомба, нарешті є 60фпс.

Спробуй плеєр Splash. На ходу конвертує в 60 кадрів, да не ідеально, але коли немає можливості завантажити в 60 - виручає.

Ваш часовий пояс: GMT + 2 Години

Нова тема   Відповісти