Американська історія жаху (Сезон 8) / American Horror Story (Season 8) (2018) 720p Eng | sub Ukr

Нові коментарі

Нова тема   Відповісти
Автор Повідомлення
Chupacabr007 
Свій


З нами з: 07.07.15
Востаннє: 04.12.20
Повідомлень: 94

2019-02-21 16:28  
Американська історія жаху (Сезон 8) / American Horror Story (Season 8) (2018) 720p Eng | sub Ukr

Американська історія жаху (Сезон 8) / American Horror Story (Season 8) (2018) 720p Eng | sub Ukr


Жанр: жахи, трилер, драма
Країна: США



Кінокомпанія: 20th Century Fox Television, Brad Falchuk Teley-Vision, Ryan Murphy Productions
Режисер: Сара Полсон, Шері Фолксон, Лоні Перістер
Актори: Емма Робертс, Сара Полсон, Кеті Бейтс, Леслі Гроссман, Біллі Лурд, Адіна Портер, Коді Ферн, Ділан МакДермот, Таїсса Фарміґа, Еван Пітерс

Сюжет:
У 2019 кілька держав запустили в небо ядерні боєголовки і стерли з лиця землі практично все живе. Покалічені радіацією залишки людства намагаються вижити в умовах ядерної зими. Обраним пощастило сховатися за товстими стінами бункерів, спеціально підготовлених певним таємним Кооперативом. Місця в цих аванпостах могли дістатися або багатіям за дуже великі гроші, або носіям унікальної ДНК. Володарями саме такого генетичного коду виявляються вчорашній школяр Тімоті (Кайл Аллен) і студентка-бунтарка Емілі (Еш Сантос). Вони прибувають на третій аванпост, де справами заправляє холоднокровна і жорстока Вільгеміна Венебл (Сара Полсон). Її суворі правила - одяг у вікторіанському стилі, обіди по годинах і ніякого сексу - поширюються на всіх без винятку мешканців притулку, чи то еліта-пурпурові чи прислуга-сірі. Однак справжні випробування починаються для тих, що вижили через 18 місяців. Коли ресурси в аванпостах добігають кінця, до Вільгеміни приїжджає таємничий гість. Представник Кооперативу Майкл Ленгдон (Коді Ферн) оголошує відбір. Найдостойніших, якщо такі знайдуться, він забере з собою, в ще більш неприступне укриття. Решту чекає довга і болісна смерть від радіації і рук колишніх людей, що мутували в монстрів ...


Тривалість: ~ 00:45:00
Перелік серій
1.The End
2.The Morning After
3.Forbidden Fruit
4.Could It Be... Satan?
5.Boy Wonder
6.Return to Murder House
7.Traitor
8.Sojourn
9.Fire and Reign
10.Apocalypse Then
Якість: 720p
Відео:
кодек:
розмір кадру: 1280 х 720
бітрейт: ~ 1454 кб/с

Аудіо:
мова: англійська
переклад: оригінал
кодек: 5.1
бітрейт: 640 кб/с

Субтитри:
мова: українська
тип: програмні (м'які)
формат: *.srt
переклад: [SubAutumn]
Скріншоти




Info
General
Complete name : D:\SubAutumn\American Horror Story (Season 8)\American.Horror.Story.s08e01.The End.
Format :
Format version : Version 4 / Version 2
File size : 676 MiB
Duration : 44mn 13s
Overall bit rate : 2 137 Kbps
Movie name : American.Horror.Story.s08e01.The End
Encoded date : UTC 2019-02-21 13:38:23
Writing application : v6.5.0 ('Isn't she lovely') built on Oct 20 2013 12:50:05
Writing library : libebml v1.3.0 + v1.4.1

Video
ID : 1
Format : AVC
Format/Info : Advanced Video Codec
Format profile : [email protected]
Format settings, CABAC : Yes
Format settings, ReFrames : 5 frames
Codec ID : V_MPEG4/ISO/AVC
Duration : 44mn 13s
Bit rate : 1 454 Kbps
Width : 1 280 pixels
Height : 720 pixels
Display aspect ratio : 16:9
Frame rate mode : Constant
Frame rate : 23.976 fps
Color space : YUV
Chroma subsampling : 4:2:0
Bit depth : 8 bits
Scan type : Progressive
Bits/(Pixel*Frame) : 0.066
Stream size : 460 MiB (68%)
Language : English
Default : Yes
Forced : No
Color range : Limited
Color primaries : BT.709
Transfer characteristics : BT.709
Matrix coefficients : BT.709

Audio
ID : 2
Format : AC-3
Format/Info : Audio Coding 3
Mode extension : CM (complete main)
Format settings, Endianness : Big
Codec ID : A_AC3
Duration : 44mn 13s
Bit rate mode : Constant
Bit rate : 640 Kbps
Channel(s) : 6 channels
Channel positions : Front: L C R, Side: L R, LFE
Sampling rate : 48.0 KHz
Compression mode : Lossy
Stream size : 202 MiB (30%)
Title : American.Horror.Story.s08e01.The End
Language : English
Default : No
Forced : No

Text
ID : 3
Format : UTF-8
Codec ID : S_TEXT/UTF8
Codec ID/Info : UTF-8 Plain Text
Title : American.Horror.Story.s08e01.The End
Language : Ukrainian
Default : Yes
Forced : No
Джерело:



Золотий реліз (завантажене не впливає на рейтинг)
 Трекер:    Зареєстрований   

Завантажити / скачати серіал українською



відео для новачків



 Зареєстрований:   2019-05-06 10:07
 Розмір:   6.34 GB 
 Оцінка серіалу:   9.7/10 (Голосів: 12)
   
Chupacabr007 
Свій


З нами з: 07.07.15
Востаннє: 04.12.20
Повідомлень: 94

2019-02-21 19:25  
Щось я не розумію, наче три людини завантажує а усе по нулях
Vitt 
Поважний учасник


З нами з: 17.01.11
Востаннє: 04.12.20
Повідомлень: 168

2019-02-21 22:05  
Напевно у всіх "сірий" ІР - немає відкритих портів :(
Chupacabr007 
Свій


З нами з: 07.07.15
Востаннє: 04.12.20
Повідомлень: 94

2019-03-01 12:54  
Додано 2 серію
Chupacabr007 
Свій


З нами з: 07.07.15
Востаннє: 04.12.20
Повідомлень: 94

2019-03-08 11:08  
Додано 3 серію
Chupacabr007 
Свій


З нами з: 07.07.15
Востаннє: 04.12.20
Повідомлень: 94

2019-03-15 11:45  
Додано 4 серію
Chupacabr007 
Свій


З нами з: 07.07.15
Востаннє: 04.12.20
Повідомлень: 94

2019-03-22 10:37  
Додано 5 серію
Chupacabr007 
Свій


З нами з: 07.07.15
Востаннє: 04.12.20
Повідомлень: 94

2019-03-29 16:03  
Додано 6 серію
Chupacabr007 
Свій


З нами з: 07.07.15
Востаннє: 04.12.20
Повідомлень: 94

2019-04-05 11:34  
Додано 7 серію
Chupacabr007 
Свій


З нами з: 07.07.15
Востаннє: 04.12.20
Повідомлень: 94

2019-04-18 14:01  
Додано 8 серію
Chupacabr007 
Свій


З нами з: 07.07.15
Востаннє: 04.12.20
Повідомлень: 94

2019-04-26 15:04  
Додано 9 серію
Chupacabr007 
Свій


З нами з: 07.07.15
Востаннє: 04.12.20
Повідомлень: 94

2019-05-06 10:12  
Додано 10 серію
Повний сезон!

Ваш часовий пояс: GMT + 2 Години

Нова тема   Відповісти