Герої в масках / PJ Masks (Сезон 1, 25 серій з 26) (2015) 1080p Ukr/Eng | sub Eng

Нові коментарі

Нова тема   Відповісти
Автор Повідомлення
sergiyko.5 
Забанено
Забанено


З нами з: 25.02.16
Востаннє: 29.10.20
Повідомлень: 3648

2019-02-21 13:39  


Герої в масках / PJ Masks (Сезон 1) (2015) 1080p Ukr/Eng | sub Eng

Герої в масках / PJ Masks (Сезон 1, 25 серій з 26) (2015) 1080p Ukr/Eng | sub Eng

Жанр: анімація, пригоди
Країна: Франція, Велика Британія
Режисер: Крістіан Де Віта, Мерлі-Енн Рідлі, Уілсон Дос Сантос
Актори/ролі озвучують: Кейлі Бріткопф, Едісон Ґолей, Якоб Іванюк

Сюжет:
Знайомтеся з новою командою супергероїв! Тепер на сторожі миру та спокою землян - "Герої в масках". Вдень це звичайні 6-річні діти: хлопчики Конор, Грег та їхня вірна помічниця Амайя, але з приходом ночі команда перетворюється на супергероїв, які готові допомогти всім, хто потрапив у біду. Яскраві костюми і браслети наділяють героїв неймовірними силами та здібностями, необхідними для вирішення складних завдань. Грег стає володарем сили, могутності й таланту маскування рептилій. Конор отримує котячу спритність, а Амайя одержує совину мудрість. Тому команда з легкістю долає з ворогів і будь-які проблеми. Головне тепер - злагоджені дії!




Тривалість: 1 серія: 24:02 (цілком серій: 25 з 26)
Якість:

Відео: кодек: розмір кадру: 1920 х 1080 бітрейт: 5000 кб/с
Аудіо 1: мова: українська переклад: професійний дубльований кодек: 2.0 бітрейт: 192 кб/с
Озвучення:
Аудіо 2: мова: англійська переклад: оригінал кодек: 2.0 бітрейт: 128 кб/с
Субтитри: мова: англійська тип: програмні (м'які) формат: *.srt
Перелік серій
01 Совко, поїзд пішов! - Хмари над Кетбоєм
02 Совко і блискострибок - Кетбой і стрибкодозер
03 Ґекко і суперніндзяліно - Совко і халепа з птеродактилем
04 Кетбой і зменшувач - Совко і луном'яч
05 Кетбой і команда метеликів - Совко переможниця
06 Ґекко, говори голосніше - Кетбой і меч майстра Фанга
07 Кетбой проти Робокота - Совко і даруй-сова
08 Кетбой і порятунок іменинного торта - Ґекко і храпозавр
09 Допомогти Ґекко - Кетбой і крихітний ніндзяліно
10 Кетбой і квиток на двох - Ґекко і зниклий Ґеккомобіль
11 Невдалий політ Кетбоя - Ґрег і суперчхання
12 Ґекко рятує Різдво - Антикрижаний план Ґекко
13 Ґекко і космічні проблеми - Незграбний Кетбой
14 Кетбой, Ґекко і бешкетний робот - Пернатий друг Совки
15 Совко і битва штабів - Ґекко і хаос в музеї
16 Кетбой усім керує - Совка виправляє помилки
17 Ґекко літає - Двоколісне диво Кетбоя
18 Великий концерт Кетбоя - Новий трюк Совки
19 Надзвукова Совка - Кетбой і липко-ліпунова рогатка
20 Як Совка - Задай ритм, Кетбой
21 Кетбой в квадраті - СуперҐекко чуття
22 Совка і совенята - Звинувачення Ґекко
23 Совка і місяцеквіт - Повільний Ґекко
24 Кетбой і лунокупол - Ґекко і всесильний камінь
25 Велетенський Ґекко - Совка розправляє крила
26 Пригальмуй, Кетбой - Особливий камінчик Ґекко
Про файл:
General
Unique ID : 10542710714238790517318747258630449169 (0x7EE73C5148D69203002A0A3B0802811)
Complete name : G:\Torrents2\MULT\MuSERIAL\PJ Masks 1080p \PJ Masks S01 1080p \S01E03.Gekko and the Super Ninjalinos-Owlette's Terrible Pterodactyl.1080p..
Format :
Format version : Version 4
File size : 897 MiB
Duration : 24 min 1 s
Overall bit rate : 5 220 kb/s
Movie name : PJ Masks S01 1080p by sergiyko
Encoded date : UTC 2019-02-21 10:23:14
Writing application : v30.0.0 ('Interstellar') 64-bit
Writing library : libebml v1.3.6 + v1.4.9

Video
ID : 1
Format : AVC
Format/Info : Advanced Video Codec
Format profile : [email protected]
Format settings : CABAC / 2 Ref Frames
Format settings, CABAC : Yes
Format settings, ReFrames : 2 frames
Codec ID : V_MPEG4/ISO/AVC
Duration : 24 min 1 s
Bit rate : 4 920 kb/s
Width : 1 920 pixels
Height : 1 080 pixels
Display aspect ratio : 16:9
Frame rate mode : Constant
Frame rate : 23.976 (23976/1000) FPS
Original frame rate : 24.000 FPS
Color space : YUV
Chroma subsampling : 4:2:0
Bit depth : 8 bits
Scan type : Progressive
Bits/(Pixel*Frame) : 0.099
Stream size : 842 MiB (94%)
Title : S01E03.Gekko and the Super Ninjalinos-Owlette's Terrible Pterodactyl
Writing library : core 115 r1995M 5a37283
Encoding settings : cabac=1 / ref=2 / deblock=1:0:0 / analyse=0x3:0x113 / me=hex / subme=2 / psy=1 / psy_rd=1.00:0.00 / mixed_ref=0 / me_range=16 / chroma_me=1 / trellis=0 / 8x8dct=1 / cqm=0 / deadzone=21,11 / fast_pskip=1 / chroma_qp_offset=0 / threads=4 / sliced_threads=0 / nr=250 / decimate=1 / interlaced=0 / bluray_compat=0 / constrained_intra=0 / bframes=0 / weightp=1 / keyint=250 / keyint_min=24 / scenecut=40 / intra_refresh=0 / rc_lookahead=10 / rc=2pass / mbtree=1 / bitrate=4920 / ratetol=1.0 / qcomp=0.60 / qpmin=5 / qpmax=69 / qpstep=4 / cplxblur=20.0 / qblur=0.5 / ip_ratio=1.40 / aq=1:1.00
Language : English
Default : Yes
Forced : No

Audio #1
ID : 2
Format : AC-3
Format/Info : Audio Coding 3
Commercial name : Dolby Digital
Codec ID : A_AC3
Duration : 24 min 1 s
Bit rate mode : Constant
Bit rate : 192 kb/s
Channel(s) : 2 channels
Channel layout : L R
Sampling rate : 48.0 kHz
Frame rate : 31.250 FPS (1536 SPF)
Bit depth : 16 bits
Compression mode : Lossy
Delay relative to video : -41 ms
Stream size : 33.0 MiB (4%)
Title : DUB | ПлюсПлюс
Language : Ukrainian
Service kind : Complete Main
Default : Yes
Forced : Yes

Audio #2
ID : 3
Format : LC SBR
Format/Info : Advanced Audio Codec Low Complexity with Spectral Band Replication
Commercial name : HE-
Format settings : Implicit
Codec ID : A_AAC-2
Duration : 24 min 1 s
Bit rate : 127 kb/s
Channel(s) : 2 channels
Channel layout : L R
Sampling rate : 48.0 kHz
Frame rate : 23.438 FPS (2048 SPF)
Compression mode : Lossy
Delay relative to video : -41 ms
Stream size : 21.8 MiB (2%)
Title : Original
Language : English
Default : No
Forced : No

Text
ID : 4
Format : UTF-8
Codec ID : S_TEXT/UTF8
Codec ID/Info : UTF-8 Plain Text
Duration : 23 min 55 s
Bit rate : 70 b/s
Count of elements : 478
Stream size : 12.3 KiB (0%)
Language : English
Default : No
Forced : No
Скріншоти:



Запис/синхронізація: sergiyko


Бронзовий реліз (на рейтинг впливає 75% завантаженого)
 Трекер:    Зареєстрований   

Завантажити / скачати мультфільм українською



відео для новачків



 Зареєстрований:   2019-09-04 18:34
 Розмір:   15.83 GB 
 Оцінка мультсеріалу:   10/10 (Голосів: 8)
   
neskvikif 
Попереджень: 2
Попереджень: 2 


З нами з: 07.10.09
Востаннє: 13.12.20
Повідомлень: 8

2019-02-25 11:16  
UP
sergiyko.5 
Забанено
Забанено


З нами з: 25.02.16
Востаннє: 29.10.20
Повідомлень: 3648

2019-09-04 18:35  
Додав нові серії. Залишилось знайти початкові декілька хвилин другої серії.
Ваш часовий пояс: GMT + 2 Години

Нова тема   Відповісти