Рома / Roma (2018) 1080p Ukr/Spa | Sub Spa/Eng

Нові коментарі

Нова тема   Відповісти
Автор Повідомлення
-Star-Lord- 
VIP


З нами з: 09.08.18
Востаннє: 23.04.19
Повідомлень: 737

2019-02-20 21:54  
Рома / Roma (2018) 1080p Ukr/Spa | Sub Spa/Eng

Рома / Roma (2018) 1080p Ukr/Spa | Sub Spa/Eng


Жанр: драма
Країна: Мексика, США
Кінокомпанія: Esperanto Filmoj, Participant Media
Режисер: Альфонсо Куарон
Актори: Марина Де Тавіра, Марко Граф, Яліца Апарісіо, Даніела Демеса, Діего Кортіна Отрі, Карлос Перальта, Латін Ловер, Енок Леаньо та інші

Сюжет:
Історія життя звичайної сім'ї середнього класу в Мехіко на початку 1970-х років. Батько рідко буває вдома, а мати виховує чотирьох дітей. Доля наших героїв змінюється через студентські заворушення під час католицького свята 10 липня 1971 року, коли демонстрантів розстріляли солдати...


Тривалість: 02:15:16
Якість: 1080p [NF]

Відео:
кодек:
розмір кадру: 1920 x 1080
бітрейт: 6810 кб/с

Аудіо # 1:
мова: українська
переклад: багатоголосий закадровий | DniproFilm
кодек: 5.1
бітрейт: 384 кб/с
Підтримати українське озвучення
Для студії DniproFilm дуже важлива популярність, чим популярнішою буде студія, тим більшу кількість українського озвучення до нових фільмів та серіалів в неї замовлятимуть. Тому прохання до не байдужих підписуватися на їх телеграм канал
Аудіо # 2:
мова: іспанська
переклад: оригінал
кодек: E- 5.1
бітрейт: 448 кб/с

Субтитри # 1:
мова: іспанська (Full),
тип: програмні (м'які)
формат: *.srt

Субтитри # 2:
мова: англійська (Full),
тип: програмні (м'які)
формат: *.srt

Субтитри # 3:
мова: англійська (SDH),
тип: програмні (м'які)
формат: *.srt


Info
Код:
General
Unique ID                                : 27378828699783607529746393313167458869 (0x1498F87978D76B314566F0633016C235)
Complete name                            : F:\Video\Roma (2018) 1080p [UKR_ENG] [Hurtom].
Format                                   :
Format version                           : Version 4 / Version 2
File size                                : 7.08 GiB
Duration                                 : 2 h 15 min
Overall bit rate mode                    : Variable
Overall bit rate                         : 7 491 kb/s
Movie name                               : Roma (2018)
Encoded date                             : UTC 2019-02-20 18:45:23
Writing application                      : v20.0.0 ('I Am The Sun') 64-bit
Writing library                          : libebml v1.3.5 + v1.4.8
Cover                                    : Yes
Attachments                              : cover.jpg

Video
ID                                       : 1
Format                                   : AVC
Format/Info                              : Advanced Video Codec
Format profile                           : [email protected]
Format settings                          : CABAC / 3 Ref Frames
Format settings, CABAC                   : Yes
Format settings, ReFrames                : 3 frames
Codec ID                                 : V_MPEG4/ISO/AVC
Duration                                 : 2 h 15 min
Bit rate mode                            : Variable
Bit rate                                 : 6 810 kb/s
Maximum bit rate                         : 10.2 Mb/s
Width                                    : 1 920 pixels
Height                                   : 1 080 pixels
Display aspect ratio                     : 16:9
Frame rate mode                          : Constant
Frame rate                               : 23.976 (24000/1001) FPS
Color space                              : YUV
Chroma subsampling                       : 4:2:0
Bit depth                                : 8 bits
Scan type                                : Progressive
Bits/(Pixel*Frame)                       : 0.137
Stream size                              : 6.29 GiB (89%)
Title                                    : Roma (2018)
Writing library                          : core 148 r2715 7e75228
Encoding settings                        : cabac=1 / ref=3 / deblock=1:0:0 / analyse=0x1:0x111 / me=umh / subme=10 / psy=1 / psy_rd=1.00:0.00 / mixed_ref=1 / me_range=24 / chroma_me=1 / trellis=2 / 8x8dct=0 / cqm=0 / deadzone=21,11 / fast_pskip=1 / chroma_qp_offset=-2 / threads=8 / lookahead_threads=1 / sliced_threads=0 / nr=0 / decimate=1 / interlaced=0 / bluray_compat=0 / stitchable=1 / constrained_intra=0 / bframes=2 / b_pyramid=0 / b_adapt=2 / b_bias=0 / direct=3 / weightb=1 / open_gop=0 / weightp=2 / keyint=48 / keyint_min=25 / scenecut=0 / intra_refresh=0 / rc_lookahead=48 / rc=2pass / mbtree=1 / bitrate=6810 / ratetol=1.0 / qcomp=0.50 / qpmin=6 / qpmax=51 / qpstep=4 / cplxblur=20.0 / qblur=0.5 / vbv_maxrate=10215 / vbv_bufsize=13620 / nal_hrd=vbr / filler=0 / ip_ratio=1.40 / aq=1:1.00
Default                                  : Yes
Forced                                   : No

Audio #1
ID                                       : 2
Format                                   : AC-3
Format/Info                              : Audio Coding 3
Codec ID                                 : A_AC3
Duration                                 : 2 h 15 min
Bit rate mode                            : Constant
Bit rate                                 : 384 kb/s
Channel(s)                               : 6 channels
Channel positions                        : Front: L C R, Side: L R, LFE
Sampling rate                            : 48.0 kHz
Frame rate                               : 31.250 FPS (1536 SPF)
Bit depth                                : 16 bits
Compression mode                         : Lossy
Stream size                              : 372 MiB (5%)
Title                                    : БЗ - DniproFilm
Language                                 : Ukrainian
Service kind                             : Complete Main
Default                                  : Yes
Forced                                   : Yes

Audio #2
ID                                       : 3
Format                                   : E-AC-3
Format/Info                              : Enhanced Audio Coding 3
Format profile                           : E-AC-3+Atmos / E-AC-3
Codec ID                                 : A_EAC3
Duration                                 : 2 h 15 min
Bit rate mode                            : Constant
Bit rate                                 : 448 kb/s
Channel(s)                               : 15 objects / 6 channels
Channel positions                        : 15 objects / Front: L C R, Side: L R, LFE
Sampling rate                            : 48.0 kHz
Frame rate                               : 187.500 FPS (256 SPF)
Compression mode                         : Lossy
Stream size                              : 433 MiB (6%)
Title                                    : Original
Language                                 : Spanish
Service kind                             : Complete Main
Default                                  : No
Forced                                   : No

Text #1
ID                                       : 4
Format                                   : UTF-8
Codec ID                                 : S_TEXT/UTF8
Codec ID/Info                            : UTF-8 Plain Text
Duration                                 : 2 h 10 min
Bit rate                                 : 33 b/s
Count of elements                        : 979
Stream size                              : 31.9 KiB (0%)
Title                                    : Full
Language                                 : Spanish
Default                                  : No
Forced                                   : No

Text #2
ID                                       : 5
Format                                   : UTF-8
Codec ID                                 : S_TEXT/UTF8
Codec ID/Info                            : UTF-8 Plain Text
Duration                                 : 2 h 8 min
Bit rate                                 : 30 b/s
Count of elements                        : 886
Stream size                              : 29.0 KiB (0%)
Title                                    : Full
Language                                 : English
Default                                  : No
Forced                                   : No

Text #3
ID                                       : 6
Format                                   : UTF-8
Codec ID                                 : S_TEXT/UTF8
Codec ID/Info                            : UTF-8 Plain Text
Duration                                 : 2 h 8 min
Bit rate                                 : 30 b/s
Count of elements                        : 886
Stream size                              : 29.0 KiB (0%)
Title                                    : SDH
Language                                 : English
Default                                  : No
Forced                                   : No
Світлини





Джерело: &
Особиста оцінка: 0 - не дивився


Авторський реліз (завантажувати можна без реєстрації)
 Трекер:    Зареєстрований   

Завантажити / скачати фільм українською



відео для новачків



 Зареєстрований:   2019-02-20 21:54
 Розмір:   7.08 GB 
 Оцінка фільму:   7.5/10 (Голосів: 15)
   
Інші релізи
   Рома / Roma (2018) 720p Ukr/Spa | Sub Eng/Multi ssTAss  27 / 0   3.06 GB   2019-02-20 16:18 
   Рома / Roma (2018) AVC ssTAss  33 / 0   1.37 GB   2019-02-20 16:18 
   Рома / Roma (2018) DniproFilm  44 / 0   2.02 GB   2018-12-26 20:27 
   Рома / Roma (2018) 720p Ukr/Spa DniproFilm  13 / 0   4.68 GB   2018-12-26 20:27 
   Рома / Roma (2018) 1080p Ukr/Spa DniproFilm  15 / 0   7.49 GB   2018-12-26 20:27 
FilmDirector 
Свій


З нами з: 21.10.11
Востаннє: 23.04.19
Повідомлень: 127

2019-02-26 18:15  
Дякую DniproFilm та всім, хто підтримує студію!

Фільм Куарона красивий, тонкий і сповнений образів та метафор, котрі змушують кожного бачити у фільмі своє. Для мене особисто це не визначне кіно, переглядала його доволі індиферентно. Варто зазначити, що операторська робота потужна. Переважна більшість кадрів мають сенс і зміст самі по собі, говорять без слів. У фільмі багато потужних образів, які запам’ятовуються. Зокрема, виділю два образи: обійми родини на пляжі (кадр із постеру) та Клео тримає рівновагу із закритими очима.

Ondrey 
Частий відвідувач


З нами з: 12.04.09
Востаннє: 12.04.19
Повідомлень: 25

2019-03-10 14:28  
Ідеально
Ваш часовий пояс: GMT + 2 Години

Нова тема   Відповісти