Зоотрополіс / Zootopia (2016) 1080p H.265 Ukr/Eng | Sub Ukr/Eng

Нові коментарі

Нова тема   Відповісти
Автор Повідомлення
Anonymous 







2019-02-20 20:43  
Зоотрополіс / Zootopia (2016) 1080p H.265 Ukr/Eng | Sub Ukr/Eng

Зоотрополіс / Zootopia (2016) 1080p H.265 Ukr/Eng | Sub Ukr/Eng


Жанр: анімація, екшн, пригодницький
Країна: США
Кінокомпанія: Walt Disney Pictures, Walt Disney Animation Studios
Режисер: Байрон Говард, Річ Мур, Джаред Буш
Актори: Джінніфер Гудвін, Джейсон Бейтмен, Ідріс Ельба, Дженні Слейт, Нейт Торренс, Бонні Гант, Дон Лейк, Томмі Чонґ, Дж.К. Сіммонс, Октавія Спенсер, Алан Тьюдік, Шакіра

Сюжет:
Ласкаво просимо у Зоотрополіс - сучасне місто, яке населяють найрізноманітніші тварини, від величезних слонів до крихітних мишок. Зоотрополіс розділений на райони, що повністю повторюють природне місце існування різних жителів. У цьому місті з'являється новий офіцер поліції, життєрадісна зайчиха Джуді Гоппс, яка з перших днів роботи розуміє, як складно бути маленькою і пухнастою серед великих і сильних поліцейських. Джуді хапається за першу ж можливість проявити себе, не дивлячись на те, що її партнером буде балакучий хитрий лис Нік Вайлд. Удвох їм доведеться розкрити складну справу, від якої буде залежати доля всіх мешканців Зоотрополісу.

Тривалість: 01:48:44
Якість:
Відео: Російський відеоряд
кодек: H.265 (HEVC)
розмір кадру: 1920 x 804
бітрейт: 5 064 кб/с
бітова глибина: 10 біт
Увага! Перед завантаженням переконайтесь, що ваш пристрій відтворення (та/або ПЗ) підтримує H.265 (HEVC)

Аудіо # 1:
мова: українська
переклад: професійний дубльований
кодек: 5.1
бітрейт: 1510 кб/с

Аудіо # 2:
мова: англійська
переклад: оригінал
кодек: 5.1
бітрейт: 1510 кб/с

Субтитри # 1:
мова: українська (Full by Gedet),
тип: програмні (м'які)
формат: *.

Субтитри # 2:
мова: англійська (Full),
тип: програмні (м'які)
формат: *.srt

Субтитри # 3:
мова: англійська (SDH),
тип: програмні (м'які)
формат: *.srt


Info
Код:
General
Unique ID                                : 274325875597567935060517598942670083172 (0xCE613DE8CA85E94FC9C8541DAEC7D464)
Complete name                            : F:\Video\Zootopia (2016) 1080p H.265 [UKR_ENG] [Hurtom].
Format                                   :
Format version                           : Version 4 / Version 2
File size                                : 6.14 GiB
Duration                                 : 1 h 48 min
Overall bit rate                         : 8 081 kb/s
Movie name                               : Zootopia (2016)
Encoded date                             : UTC 2019-02-17 14:26:33
Writing application                      : v20.0.0 ('I Am The Sun') 64-bit
Writing library                          : libebml v1.3.5 + v1.4.8
Cover                                    : Yes
Attachments                              : Cover.jpg

Video
ID                                       : 1
Format                                   : HEVC
Format/Info                              : High Efficiency Video Coding
Format profile                           : Main [email protected]@High
Codec ID                                 : V_MPEGH/ISO/HEVC
Duration                                 : 1 h 48 min
Bit rate                                 : 5 064 kb/s
Width                                    : 1 920 pixels
Height                                   : 804 pixels
Display aspect ratio                     : 2.40:1
Frame rate mode                          : Constant
Frame rate                               : 23.976 (23976/1000) FPS
Original frame rate                      : 23.976 (24000/1001) FPS
Color space                              : YUV
Chroma subsampling                       : 4:2:0
Bit depth                                : 10 bits
Bits/(Pixel*Frame)                       : 0.137
Stream size                              : 3.85 GiB (63%)
Title                                    : Zootopia (2016)
Writing library                          : x265 2.8+74-fd517ae68f93:[Windows][MSVC 1915][64 bit] 10bit
Encoding settings                        : cpuid=1111039 / frame-threads=3 / numa-pools=12 / wpp / no-pmode / no-pme / no-psnr / no-ssim / log-level=2 / input-csp=1 / input-res=1920x804 / interlace=0 / total-frames=43598 / level-idc=41 / high-tier=1 / uhd-bd=0 / ref=5 / no-allow-non-conformance / no-repeat-headers / annexb / no-aud / no-hrd / info / hash=0 / no-temporal-layers / open-gop / min-keyint=23 / keyint=240 / gop-lookahead=0 / bframes=12 / b-adapt=2 / b-pyramid / bframe-bias=0 / rc-lookahead=60 / lookahead-slices=4 / scenecut=40 / radl=0 / no-intra-refresh / ctu=32 / min-cu-size=8 / rect / amp / max-tu-size=32 / tu-inter-depth=4 / tu-intra-depth=4 / limit-tu=1 / rdoq-level=2 / dynamic-rd=0.00 / no-ssim-rd / signhide / no-tskip / nr-intra=0 / nr-inter=0 / no-constrained-intra / no-strong-intra-smoothing / max-merge=4 / limit-refs=2 / limit-modes / me=3 / subme=7 / merange=57 / temporal-mvp / weightp / weightb / no-analyze-src-pics / deblock=-3:-3 / no-sao / no-sao-non-deblock / rd=6 / no-early-skip / no-rskip / no-fast-intra / no-tskip-fast / no-cu-lossless / no-b-intra / no-splitrd-skip / rdpenalty=0 / psy-rd=2.00 / psy-rdoq=1.00 / no-rd-refine / no-lossless / cbqpoffs=0 / crqpoffs=0 / rc=crf / crf=20.0 / qcomp=0.60 / qpstep=4 / stats-write=0 / stats-read=0 / vbv-maxrate=50000 / vbv-bufsize=50000 / vbv-init=0.9 / crf-max=0.0 / crf-min=0.0 / ipratio=1.40 / pbratio=1.30 / aq-mode=1 / aq-strength=0.80 / no-cutree / zone-count=0 / no-strict-cbr / qg-size=32 / no-rc-grain / qpmax=69 / qpmin=0 / no-const-vbv / sar=1 / overscan=0 / videoformat=5 / range=0 / colorprim=2 / transfer=2 / colormatrix=2 / chromaloc=0 / display-window=0 / max-cll=0,0 / min-luma=0 / max-luma=1023 / log2-max-poc-lsb=8 / vui-timing-info / vui-hrd-info / slices=1 / no-opt-qp-pps / no-opt-ref-list-length-pps / no-multi-pass-opt-rps / scenecut-bias=0.05 / no-opt-cu-delta-qp / no-aq-motion / no-hdr / no-hdr-opt / no-dhdr10-opt / no-idr-recovery-sei / analysis-reuse-level=5 / scale-factor=0 / refine-intra=0 / refine-inter=0 / refine-mv=0 / no-limit-sao / ctu-info=0 / no-lowpass-dct / refine-mv-type=0 / copy-pic=1 / max-ausize-factor=1.0 / no-dynamic-refine / no-single-sei
Default                                  : Yes
Forced                                   : No

Audio #1
ID                                       : 2
Format                                   :
Format/Info                              : Digital Theater Systems
Codec ID                                 : A_DTS
Duration                                 : 1 h 48 min
Bit rate mode                            : Constant
Bit rate                                 : 1 509 kb/s
Channel(s)                               : 6 channels
Channel positions                        : Front: L C R, Side: L R, LFE
Sampling rate                            : 48.0 kHz
Frame rate                               : 93.750 FPS (512 SPF)
Bit depth                                : 24 bits
Compression mode                         : Lossy
Stream size                              : 1.14 GiB (19%)
Title                                    : ПД - Blu-Ray
Language                                 : Ukrainian
Default                                  : Yes
Forced                                   : Yes

Audio #2
ID                                       : 3
Format                                   :
Format/Info                              : Digital Theater Systems
Codec ID                                 : A_DTS
Duration                                 : 1 h 48 min
Bit rate mode                            : Constant
Bit rate                                 : 1 509 kb/s
Channel(s)                               : 6 channels
Channel positions                        : Front: L C R, Side: L R, LFE
Sampling rate                            : 48.0 kHz
Frame rate                               : 93.750 FPS (512 SPF)
Bit depth                                : 24 bits
Compression mode                         : Lossy
Stream size                              : 1.14 GiB (19%)
Title                                    : Original
Language                                 : English
Default                                  : No
Forced                                   : No

Text #1
ID                                       : 4
Format                                   :
Codec ID                                 : S_TEXT/
Codec ID/Info                            : Advanced Sub Station Alpha
Duration                                 : 1 h 35 min
Bit rate                                 : 183 b/s
Count of elements                        : 1407
Compression mode                         : Lossless
Stream size                              : 128 KiB (0%)
Title                                    : Fuul by Gedet
Language                                 : Ukrainian
Default                                  : Yes
Forced                                   : No

Text #2
ID                                       : 5
Format                                   : UTF-8
Codec ID                                 : S_TEXT/UTF8
Codec ID/Info                            : UTF-8 Plain Text
Duration                                 : 1 h 38 min
Bit rate                                 : 71 b/s
Count of elements                        : 1698
Stream size                              : 52.0 KiB (0%)
Title                                    : Full
Language                                 : English
Default                                  : No
Forced                                   : No

Text #3
ID                                       : 6
Format                                   : UTF-8
Codec ID                                 : S_TEXT/UTF8
Codec ID/Info                            : UTF-8 Plain Text
Duration                                 : 1 h 45 min
Bit rate                                 : 82 b/s
Count of elements                        : 2293
Stream size                              : 63.7 KiB (0%)
Title                                    : SDH
Language                                 : English
Default                                  : No
Forced                                   : No

Menu
00:00:00.000                             : en:(01)00:00:00:000
00:00:59.558                             : en:(02)00:00:59:558
00:05:50.098                             : en:(03)00:05:50:098
00:10:05.562                             : en:(04)00:10:05:562
00:14:31.537                             : en:(05)00:14:31:537
00:18:24.019                             : en:(06)00:18:24:019
00:26:03.353                             : en:(07)00:26:03:353
00:30:57.438                             : en:(08)00:30:57:438
00:37:07.099                             : en:(09)00:37:07:099
00:40:43.440                             : en:(10)00:40:43:440
00:44:31.751                             : en:(11)00:44:31:751
00:51:40.429                             : en:(12)00:51:40:429
00:55:40.378                             : en:(13)00:55:40:378
01:00:48.268                             : en:(14)01:00:48:268
01:03:37.855                             : en:(15)01:03:37:855
01:09:19.822                             : en:(16)01:09:19:822
01:13:39.162                             : en:(17)01:13:39:162
01:17:07.372                             : en:(18)01:17:07:372
01:21:52.363                             : en:(19)01:21:52:363
01:28:19.167                             : en:(20)01:28:19:167
01:32:43.430                             : en:(21)01:32:43:430
01:36:12.140                             : en:(22)01:36:12:140
01:48:32.171                             : en:(23)01:48:32:171
Світлини





Джерело: &
Особиста оцінка: 10 - без зайвих вагань рекомендую всім!


 Трекер:    Зареєстрований   

Завантажити / скачати мультфільм українською



відео для новачків



 Зареєстрований:   2019-02-20 20:43
 Розмір:   6.14 GB 
 Оцінка мультфільму:   9.2/10 (Голосів: 11)
   
Інші релізи
   Зоотрополіс / Zootopia (2016) 1080p H.265 Ukr/Eng | Sub Ukr/Eng igor302  10 / 0   4.73 GB   2018-04-10 15:24 
   Зоотрополіс / Zootopia (2016) AVC Ukr/Eng | Sub Ukr/Eng BASTERD-94  15 / 0   2.18 GB   2017-01-01 22:30 
   Зоотрополіс / Zootopia (2016) Ukr/Eng BASTERD-94  18 / 0   2.18 GB   2016-12-31 20:30 
   Зоотрополіс / Zootopia (2016) 720p-mini 60fps Ukr/Eng | Sub Ukr/Eng SilentBoss  9 / 0   4.12 GB   2016-08-15 18:44 
   Зоотрополіс / Zootopia (2016) Remux 1080p Ukr/Eng | Sub Ukr/Eng 11FrYkT  4 / 0   26.41 GB   2016-06-30 19:54 
   Зоотрополіс / Zootopia (2016) AVC Nikson  8 / 0   2.01 GB   2016-06-27 18:06 
   Зоотрополіс / Zootopia (2016) 1080p 3D [HalfOverUnder] Ukr/Eng | Sub Ukr/Eng -VipeR-  1 / 1   8.84 GB   2016-06-27 10:11 
   Зоотрополіс / Zootopia (2016) 720p Ukr/Eng | Sub Ukr/Eng Hanway  29 / 0   3.51 GB   2016-06-26 18:24 
   Зоотрополіс / Zootopia (2016) 1080p Ukr/Eng | Sub Ukr/Eng Hanway  31 / 1   8.38 GB   2016-06-26 17:06 
   Зоотрополіс / Zootopia (2016) Gelios  50 / 1   1.45 GB   2016-06-26 14:18 
jaral 
Забанено
Забанено


З нами з: 18.10.07
Востаннє: 21.01.20
Повідомлень: 982

2019-02-21 15:01  
-Star-Lord- написано:
Відео: Російський відеоряд
Пора з Толоки стирати все іноземне та українське, яке русифіковане.
Ваш часовий пояс: GMT + 2 Години

Нова тема   Відповісти