Своя людина / The Insider (1999) Remux 1080p Ukr/Eng | Sub Eng

Нові коментарі

Нова тема   Відповісти
Автор Повідомлення
staf777 
Відео Гуртом - підтримка та поширення
Відео Гуртом - підтримка та поширення


З нами з: 16.11.16
Востаннє: 22.04.19
Повідомлень: 2281

2019-02-20 17:34  
Своя людина / The Insider (1999) Remux 1080p Ukr/Eng | Sub Eng

Своя людина / The Insider (1999) Remux 1080p Ukr/Eng | Sub Eng


Жанр: біографічний, драма, трилер
Країна: США



Кінокомпанія: Blue Lion Entertainment, Forward Pass, Kaitz Productions
Режисер: Майкл Манн
Актори: Аль Пачіно, Рассел Кроу, Крістофер Пламмер, Даян Венора, Філіп Бейкер Гол, Ліндсей Круз, Дебі Мазар, Стівен Тоболовскі, Колм Фіорі, Брюс Маꥳлл

Сюжет:
Джеффрі Вайґенда звільняють з поста віце-президента найбільшої тютюнової компанії за те, що він протестує проти використання в тютюновій продукції компонента, що викликає у курців наркотичну залежність. Ловелл Берґмен, продюсер популярного телешоу, дізнається про це і переконує Вайґенда виступити з викривальним інтерв'ю по телебаченню... Це дуже не подобається стовпам тютюнової індустрії, які запевняють у нешкідливості виробленої продукції. Олігархи приймають найсуворіші заходи, щоб інформація не стала надбанням гласності. Від Вайґенда йде дружина, Ловелла Берґмена відправляють у відпустку. Там, де задіяні великі гроші, даремно боротися за справедливість, але Берґмен і Вайґенд не припиняють боротьбу.


Тривалість: 02:37:47
Якість: Remux 1080p
Відео:
кодек:
розмір кадру: 1920x1080
бітрейт: 25,9 Mб/с

Аудіо # 1:
мова: українська
переклад: багатоголосий закадровий
кодек: 5.1
бітрейт: 384 кб/с
Інформація про озвучення
Аудіо # 2:
мова: англійська
переклад: оригінал
кодек: -HD MA 5.1
бітрейт: 4425 кб/с

Субтитри:
мова: англійська
тип: пререндерні
формат: *.pgs
Info
General
Unique ID : 230643085388764472521841060165120711539 (0xAD843E11F6C676AAB371C6F716445B73)
Complete name : S:\» HD українською » Фільми в HD\The Insider (1999) Remux 1080p [UKR][ENG][Hurtom].
Format :
Format version : Version 4
File size : 33.8 GiB
Duration : 2 h 37 min
Overall bit rate mode : Variable
Overall bit rate : 30.7 Mb/s
Movie name : The Insider (1999) Remux 1080p [UKR][ENG][Hurtom]
Encoded date : UTC 2019-02-20 14:31:06
Writing application : v30.1.0 ('Forever And More') 64-bit
Writing library : libebml v1.3.6 + v1.4.9
Cover : Yes
Attachments : cover.jpg

Video
ID : 1
Format : AVC
Format/Info : Advanced Video Codec
Format profile : [email protected]
Format settings : CABAC / 4 Ref Frames
Format settings, CABAC : Yes
Format settings, ReFrames : 4 frames
Format settings, GOP : M=3, N=12
Codec ID : V_MPEG4/ISO/AVC
Duration : 2 h 37 min
Bit rate mode : Variable
Bit rate : 25.9 Mb/s
Maximum bit rate : 34.0 Mb/s
Width : 1 920 pixels
Height : 1 080 pixels
Display aspect ratio : 16:9
Frame rate mode : Constant
Frame rate : 23.976 (24000/1001) FPS
Color space : YUV
Chroma subsampling : 4:2:0
Bit depth : 8 bits
Scan type : Progressive
Bits/(Pixel*Frame) : 0.521
Stream size : 28.5 GiB (84%)
Default : Yes
Forced : No

Audio #1
ID : 2
Format : AC-3
Format/Info : Audio Coding 3
Commercial name : Dolby Digital
Codec ID : A_AC3
Duration : 2 h 37 min
Bit rate mode : Constant
Bit rate : 384 kb/s
Channel(s) : 6 channels
Channel layout : L R C LFE Ls Rs
Sampling rate : 48.0 kHz
Frame rate : 31.250 FPS (1536 SPF)
Bit depth : 16 bits
Compression mode : Lossy
Stream size : 433 MiB (1%)
Language : Ukrainian
Service kind : Complete Main
Default : Yes
Forced : Yes

Audio #2
ID : 3
Format : XLL
Format/Info : Digital Theater Systems
Commercial name : -HD Master Audio
Codec ID : A_DTS
Duration : 2 h 37 min
Bit rate mode : Variable
Bit rate : 4 425 kb/s
Channel(s) : 6 channels
Channel layout : C L R Ls Rs LFE
Sampling rate : 48.0 kHz
Frame rate : 93.750 FPS (512 SPF)
Bit depth : 24 bits
Compression mode : Lossless
Stream size : 4.88 GiB (14%)
Language : English
Default : No
Forced : No

Text
ID : 4
Format : PGS
Muxing mode : zlib
Codec ID : S_HDMV/PGS
Codec ID/Info : Picture based subtitle format used on BDs/HD-DVDs
Duration : 2 h 36 min
Bit rate : 32.4 kb/s
Count of elements : 3928
Stream size : 36.3 MiB (0%)
Language : English
Default : No
Forced : No



Джерело: &
За постер подяка п. Gelios
За українську доріжку подяка п.: Vasua95, MAKAPOHHIK, Gelios, _oles
Особиста оцінка: 8 - мені сподобалося
Своя людина / The Insider (1999) Remux 1080p Ukr/Eng | Sub Eng Своя людина / The Insider (1999) Remux 1080p Ukr/Eng | Sub Eng


Золотий реліз (завантажене не впливає на рейтинг)
 Трекер:    Зареєстрований   

Завантажити / скачати фільм українською



відео для новачків



 Зареєстрований:   2019-02-20 19:25
 Розмір:   33.83 GB 
 Оцінка фільму:   7.8/10 (Голосів: 8)
   
Інші релізи
   Своя людина / The Insider (1999) AVC Ukr/Eng | Sub Eng drop_plz  8 / 0   3.96 GB   2019-01-20 12:53 
   Своя людина / The Insider (1999) mini 1080p H.265 Ukr/Eng | sub Eng ukr_anonymous  3 / 0   5.76 GB   2018-06-19 14:33 
   Своя людина / The Insider (1999) 720p Ukr/Eng | sub Eng bodia87  3 / 0   4.33 GB   2013-10-18 17:28 
   Своя людина / The Insider (1999) Gelios  4 / 0   2.18 GB   2013-10-17 17:58 
Ваш часовий пояс: GMT + 2 Години

Нова тема   Відповісти