Рома / Roma (2018) 720p Ukr/Spa | Sub Eng/Multi

Нові коментарі

Нова тема   Відповісти
Автор Повідомлення
Anonymous 







2019-02-20 16:18  
Рома / Roma (2018) 720p Ukr/Spa | Sub Eng/Multi

Рома / Roma (2018) 720p Ukr/Spa | Sub Eng/Multi


Жанр: драма
Країна: Мексика, США



Кінокомпанія: Esperanto Filmoj, Participant Media
Режисер: Альфонсо Куарон
Актори: Марина Де Тавіра, Марко Граф, Яліца Апарісіо, Даніела Демеса, Діего Кортіна Отрі, Карлос Перальта, Латін Ловер, Енок Леаньо та інші

Сюжет:
Історія життя звичайної сім'ї середнього класу в Мехіко на початку 1970-х років. Батько рідко буває вдома, а мати виховує чотирьох дітей. Доля наших героїв змінюється через студентські заворушення під час католицького свята 10 липня 1971 року, коли демонстрантів розстріляли солдати...


Тривалість: 02:15:16
Якість: 720p
Відео:
кодек:
розмір кадру: 1280 х 536
бітрейт: 2406 кб/с

Аудіо # 1:
мова: українська
переклад: багатоголосий закадровий
кодек: 5.1
бітрейт: 384 кб/с

Аудіо # 2:
мова: іспанська
переклад: оригінал
кодек: 5.1
бітрейт: 448 кб/с

Джерело озвучення:
DniproFilm

Субтитри:
мова: англійська, англійська (SDH), португальска (браз.), данська, нідерландська, іспанська (євр.), фінська, французька, німецька, грецька, індонезійська, італійська, норвезька, польська, португальська, кацапська, іспанська, шведська, турецька
тип: програмні (м'які)
формат: *.srt
Info
General
Unique ID : 180542677015322385469317428976744201512 (0x87D34139F0F9CD133A7DD30BCB14FD28)
Complete name : Roma (2018) 720p [UKR.SPA, sub ENG.MULTI] [Hurtom].
Format :
Format version : Version 4
File size : 3.06 GiB
Duration : 2 h 15 min
Overall bit rate : 3 242 kb/s
Movie name : Рома (2018)
Encoded date : UTC 2019-02-19 23:30:44
Writing application : v30.1.0 ('Forever And More') 32-bit
Writing library : libebml v1.3.6 + v1.4.9
Cover : Yes
Attachments : cover.jpg

Video
ID : 1
Format : AVC
Format/Info : Advanced Video Codec
Format profile : [email protected]
Format settings : CABAC / 5 Ref Frames
Format settings, CABAC : Yes
Format settings, ReFrames : 5 frames
Codec ID : V_MPEG4/ISO/AVC
Duration : 2 h 15 min
Bit rate : 2 406 kb/s
Width : 1 280 pixels
Height : 536 pixels
Display aspect ratio : 2.40:1
Frame rate mode : Constant
Frame rate : 23.976 (24000/1001) FPS
Color space : YUV
Chroma subsampling : 4:2:0
Bit depth : 8 bits
Scan type : Progressive
Bits/(Pixel*Frame) : 0.146
Stream size : 2.27 GiB (74%)
Writing library : core 157 r2935 545de2f
Encoding settings : cabac=1 / ref=5 / deblock=1:-3:-3 / analyse=0x3:0x113 / me=hex / subme=8 / psy=1 / psy_rd=1.00:0.15 / mixed_ref=1 / me_range=16 / chroma_me=1 / trellis=2 / 8x8dct=1 / cqm=0 / deadzone=21,11 / fast_pskip=1 / chroma_qp_offset=-2 / threads=17 / lookahead_threads=2 / sliced_threads=0 / nr=0 / decimate=1 / interlaced=0 / bluray_compat=0 / constrained_intra=0 / bframes=3 / b_pyramid=2 / b_adapt=2 / b_bias=0 / direct=3 / weightb=1 / open_gop=0 / weightp=2 / keyint=250 / keyint_min=23 / scenecut=40 / intra_refresh=0 / rc_lookahead=50 / rc=crf / mbtree=1 / crf=18.0 / qcomp=0.60 / qpmin=0 / qpmax=69 / qpstep=4 / ip_ratio=1.40 / aq=1:0.80
Language : Spanish
Default : Yes
Forced : No
Color range : Limited
Matrix coefficients : BT.709

Audio #1
ID : 2
Format : AC-3
Format/Info : Audio Coding 3
Commercial name : Dolby Digital
Codec ID : A_AC3
Duration : 2 h 15 min
Bit rate mode : Constant
Bit rate : 384 kb/s
Channel(s) : 6 channels
Channel layout : L R C LFE Ls Rs
Sampling rate : 48.0 kHz
Frame rate : 31.250 FPS (1536 SPF)
Bit depth : 16 bits
Compression mode : Lossy
Stream size : 372 MiB (12%)
Language : Ukrainian
Service kind : Complete Main
Default : Yes
Forced : Yes

Audio #2
ID : 3
Format : E-AC-3 JOC
Format/Info : Enhanced AC-3 with Joint Object Coding
Commercial name : Dolby Digital Plus with Dolby Atmos
Codec ID : A_EAC3
Duration : 2 h 15 min
Bit rate mode : Constant
Bit rate : 448 kb/s
Channel(s) : 6 channels
Channel layout : L R C LFE Ls Rs
Sampling rate : 48.0 kHz
Frame rate : 31.250 FPS (1536 SPF)
Compression mode : Lossy
Stream size : 433 MiB (14%)
Language : Spanish
Service kind : Complete Main
Default : No
Forced : No
Complexity index : 16
Number of dynamic objects : 15
Bed channel count : 1 channel
Bed channel configuration : LFE

Text #1
ID : 4
Format : UTF-8
Codec ID : S_TEXT/UTF8
Codec ID/Info : UTF-8 Plain Text
Duration : 2 h 8 min
Bit rate : 30 b/s
Count of elements : 886
Stream size : 29.0 KiB (0%)
Language : English
Default : Yes
Forced : No

Text #2
ID : 5
Format : UTF-8
Codec ID : S_TEXT/UTF8
Codec ID/Info : UTF-8 Plain Text
Duration : 2 h 8 min
Bit rate : 30 b/s
Count of elements : 886
Stream size : 29.0 KiB (0%)
Language : English
Default : No
Forced : No

Text #3
ID : 6
Format : UTF-8
Codec ID : S_TEXT/UTF8
Codec ID/Info : UTF-8 Plain Text
Duration : 2 h 14 min
Bit rate : 29 b/s
Count of elements : 959
Stream size : 29.4 KiB (0%)
Title : Brazilian
Language : Portuguese
Default : No
Forced : No

Text #4
ID : 7
Format : UTF-8
Codec ID : S_TEXT/UTF8
Codec ID/Info : UTF-8 Plain Text
Duration : 2 h 14 min
Bit rate : 30 b/s
Count of elements : 883
Stream size : 30.4 KiB (0%)
Language : Danish
Default : No
Forced : No

Text #5
ID : 8
Format : UTF-8
Codec ID : S_TEXT/UTF8
Codec ID/Info : UTF-8 Plain Text
Duration : 2 h 14 min
Bit rate : 29 b/s
Count of elements : 887
Stream size : 29.0 KiB (0%)
Language : Dutch
Default : No
Forced : No

Text #6
ID : 9
Format : UTF-8
Codec ID : S_TEXT/UTF8
Codec ID/Info : UTF-8 Plain Text
Duration : 2 h 10 min
Bit rate : 33 b/s
Count of elements : 979
Stream size : 31.9 KiB (0%)
Title : European
Language : Spanish
Default : No
Forced : No

Text #7
ID : 10
Format : UTF-8
Codec ID : S_TEXT/UTF8
Codec ID/Info : UTF-8 Plain Text
Duration : 2 h 14 min
Bit rate : 31 b/s
Count of elements : 906
Stream size : 31.2 KiB (0%)
Language : Finnish
Default : No
Forced : No

Text #8
ID : 11
Format : UTF-8
Codec ID : S_TEXT/UTF8
Codec ID/Info : UTF-8 Plain Text
Duration : 2 h 14 min
Bit rate : 33 b/s
Count of elements : 906
Stream size : 33.4 KiB (0%)
Language : French
Default : No
Forced : No

Text #9
ID : 12
Format : UTF-8
Codec ID : S_TEXT/UTF8
Codec ID/Info : UTF-8 Plain Text
Duration : 2 h 14 min
Bit rate : 32 b/s
Count of elements : 915
Stream size : 31.5 KiB (0%)
Language : German
Default : No
Forced : No

Text #10
ID : 13
Format : UTF-8
Codec ID : S_TEXT/UTF8
Codec ID/Info : UTF-8 Plain Text
Duration : 2 h 14 min
Bit rate : 49 b/s
Count of elements : 906
Stream size : 48.6 KiB (0%)
Language : Greek
Default : No
Forced : No

Text #11
ID : 14
Format : UTF-8
Codec ID : S_TEXT/UTF8
Codec ID/Info : UTF-8 Plain Text
Duration : 2 h 14 min
Bit rate : 30 b/s
Count of elements : 932
Stream size : 29.7 KiB (0%)
Language : Indonesian
Default : No
Forced : No

Text #12
ID : 15
Format : UTF-8
Codec ID : S_TEXT/UTF8
Codec ID/Info : UTF-8 Plain Text
Duration : 2 h 13 min
Bit rate : 31 b/s
Count of elements : 907
Stream size : 30.6 KiB (0%)
Language : Italian
Default : No
Forced : No

Text #13
ID : 16
Format : UTF-8
Codec ID : S_TEXT/UTF8
Codec ID/Info : UTF-8 Plain Text
Duration : 2 h 14 min
Bit rate : 29 b/s
Count of elements : 904
Stream size : 29.2 KiB (0%)
Language : Norwegian Bokmal
Default : No
Forced : No

Text #14
ID : 17
Format : UTF-8
Codec ID : S_TEXT/UTF8
Codec ID/Info : UTF-8 Plain Text
Duration : 2 h 14 min
Bit rate : 30 b/s
Count of elements : 902
Stream size : 30.3 KiB (0%)
Language : Polish
Default : No
Forced : No

Text #15
ID : 18
Format : UTF-8
Codec ID : S_TEXT/UTF8
Codec ID/Info : UTF-8 Plain Text
Duration : 2 h 14 min
Bit rate : 30 b/s
Count of elements : 911
Stream size : 30.1 KiB (0%)
Language : Portuguese
Default : No
Forced : No

Text #16
ID : 19
Format : UTF-8
Codec ID : S_TEXT/UTF8
Codec ID/Info : UTF-8 Plain Text
Duration : 2 h 14 min
Bit rate : 51 b/s
Count of elements : 937
Stream size : 50.2 KiB (0%)
Language : Russian
Default : No
Forced : No

Text #17
ID : 20
Format : UTF-8
Codec ID : S_TEXT/UTF8
Codec ID/Info : UTF-8 Plain Text
Duration : 2 h 14 min
Bit rate : 51 b/s
Count of elements : 1636
Stream size : 50.7 KiB (0%)
Language : Spanish
Default : No
Forced : No

Text #18
ID : 21
Format : UTF-8
Codec ID : S_TEXT/UTF8
Codec ID/Info : UTF-8 Plain Text
Duration : 2 h 14 min
Bit rate : 28 b/s
Count of elements : 908
Stream size : 28.3 KiB (0%)
Language : Swedish
Default : No
Forced : No

Text #19
ID : 22
Format : UTF-8
Codec ID : S_TEXT/UTF8
Codec ID/Info : UTF-8 Plain Text
Duration : 2 h 14 min
Bit rate : 30 b/s
Count of elements : 917
Stream size : 29.8 KiB (0%)
Language : Turkish
Default : No
Forced : No
Скріншоти
Джерело:


Авторський реліз (завантажувати можна без реєстрації)
 Трекер:    Зареєстрований   

Завантажити / скачати фільм українською



відео для новачків



 Зареєстрований:   2019-02-20 16:18
 Розмір:   3.06 GB 
 Оцінка фільму:   8.1/10 (Голосів: 18)
   
Інші релізи
   Рома / Roma (2018) 1080p Ukr/Spa | Sub Spa/Eng -Star-Lord-  7 / 0   7.08 GB   2019-02-20 21:54 
   Рома / Roma (2018) AVC ssTAss  13 / 0   1.37 GB   2019-02-20 16:18 
   Рома / Roma (2018) DniproFilm  12 / 0   2.02 GB   2018-12-26 20:27 
   Рома / Roma (2018) 720p Ukr/Spa DniproFilm  2 / 0   4.68 GB   2018-12-26 20:27 
   Рома / Roma (2018) 1080p Ukr/Spa DniproFilm  4 / 0   7.49 GB   2018-12-26 20:27 
vic7400 
Частий відвідувач


З нами з: 25.01.13
Востаннє: 17.10.19
Повідомлень: 33

2019-02-21 21:50  
в пошуках укр титрів,лише вдруге прочитавши, усвідомив шо то таке ''кацапська''
You make my day ,тобто вечір Wink (1)

qarty1 
VIP


З нами з: 01.11.09
Востаннє: 18.10.19
Повідомлень: 266

2019-02-26 23:45  
саме цікаво чому фільм називається Рома, набирав іспанську ніяк не переклало, фільм не вразив 6/10
don pedro 
Попереджень: 1
Попереджень: 1 


З нами з: 29.06.11
Востаннє: 18.10.19
Повідомлень: 14597

2019-02-26 23:49  
qarty1
Тому що панський район Мехіко, де відбуваються події фільму і де зростав і сам Куарон, називається Рома.

Wensun 
Свій


З нами з: 20.01.09
Востаннє: 18.10.19
Повідомлень: 138

2019-02-27 02:10  
З тяжкою бідою осилив 1:20 хв. мож завтра осилю до кінця. кіно ні про шо (поки що). ходять говорять, сюжету нема, тупо документалка. таких фільмів про історію одної людини можна міліон назнімати, встав поїв пішов в місто, порозглядав вітрини і дівок. прийшов, поїв, подивився телевізор, поговорив по телефону. повечеряв, випив пиво і пішов спати... от вам і кіно. Хвалять операторську роботу, сам знімаю 22 роки. статичні кадри, панорами на ліво на право, мінімум "великих" кадрів (чи то взагалі нема), коли камера "їде" за "йдущою людиною" трісеться і гойдається як маятник. ну не знаю з таким щастям можна оскари давати любому оператору телеканалу... АЛЕ ! після Місячного сяйва в оскар не вірю, Зелена книга кіно гарне але не більше. є набагато кращі. 4/10
Ваш часовий пояс: GMT + 2 Години

Нова тема   Відповісти