Здохни (Помста) / Revenge (2017) AVC Ukr/Eng | Sub Ukr/Eng

Нові коментарі

Нова тема   Відповісти
Автор Повідомлення
Anonymous 







2019-02-20 10:37  
Здохни / Помста / Revenge (2017) AVC Ukr/Eng | Sub Ukr/Eng

Здохни (Помста) / Revenge (2017) AVC Ukr/Eng | Sub Ukr/Eng
Альтернативні постери:

Здохни (Помста) / Revenge (2017) AVC Ukr/Eng | Sub Ukr/Eng




Жанр: бойовик, жахи, трилер, кримінальний
Країна: Франція, Бельгія



Кінокомпанія: M.E.S. Productions, Monkey Pack Films, Charades, Logical Pictures, Nexus Factory, Umedia, uFund, Canal+, Ciné+, Cinémage 12, Le Tax Shelter du Gouvernement Fédéral de Belgique, Investisseurs Tax Shelter
Режисер: Коралі Фарже / Coralie Fargeat
Актори: Матильда Анна Інгрід Лутс / Matilda Anna Ingrid Lutz, Кевін Дженссенс / Kevin Janssens, Вінсент Коломбе / Vincent Colombe, Гійом Буше / Guillaume Bouchède, Жан-Луї Трибе / Jean-Louis Tribes

Сюжет:
Молода американка Дженіфер проводить вихідні з одруженим французьким бойфрендом у відокремленому комфортабельному будинку з басейном. Раптом завчасно туди приїжджають двоє його друзів, з якими він домовився пополювати у вихідні. Дівчині варто було б вести себе скромніше в присутності незнайомих чоловіків, але бажаючи розпалити пристрасть коханця, Дженіфер трохи заграє з його другом.

Троє друзів щороку збираються разом на полювання у пустельному каньйоні. Всі вони - заможні бізнесмени, сімейні люди, а цей вік-енд для них - своєрідний спосіб випустити пару і відчути свою мужність та брутальність. Однак на цей раз один з товаришів прибув на день раніше зі своєю сексуальною американською коханкою Джен, і та викликає інтерес у двох інших чоловіків. Ситуація виходить з-під контролю, і здається, дівчині доведеться загинути посеред висушеного пекла, але не все так просто. На самих мисливців відкривається полювання...



Рейтинг MPAA: R - особам до 17 років обов'язкова присутність батьків або дорослого опікуна
Вікова категорія: 18+
Офіційні трейлери:

звичайний:


RED BAND трейлер (18+):
Тривалість: 01:48:08
Якість:
Відео:
кодек:
розмір кадру: 984x412
бітрейт: 2032 кб/с
примітка: відеоряд без хардсабу на французьку мову

Аудіо # 1:
мова: українська
переклад: багатоголосий закадровий
кодек: 2.0 [стерео]
бітрейт: 192 кб/с

Аудіо # 2:
мова: англійська, французька
переклад: оригінал
кодек: 5.1
бітрейт: 448 кб/с

Субтитри # 1:
мова: українська
тип: програмні (м'які)
формат: *.srt
переклад: аматорський, спільнота SubAutumn
редагування: igor911

Субтитри # 2:
мова: англійська
тип: програмні (м'які)
формат: *.srt
Info та log
Код:

Complete name               : Revenge (2017) [Ukr,Eng sub.Ukr,Eng] AVC [Hurtom].
Format                      :
Format version              : Version 4
File size                   : 2.02 GiB
Duration                    : 1 h 48 min
Overall bit rate            : 2 674 kb/s
Movie name                  : Помста / Revenge (2017) [Ukr,Eng sub.Ukr,Eng] AVC [Hurtom]
Encoded date                : UTC 2019-08-26 14:48:46
Writing application         : v37.0.0 ('Leave It') 64-bit
Writing library             : libebml v1.3.9 + v1.5.2
Cover                       : Yes
Attachments                 : cover.jpg

Video
ID                          : 1
Format                      : AVC
Format/Info                 : Advanced Video Codec
Format profile              : [email protected]
Format settings             : CABAC / 12 Ref Frames
Format settings, CABAC      : Yes
Format settings, Reference  : 12 frames
Codec ID                    : V_MPEG4/ISO/AVC
Duration                    : 1 h 48 min
Bit rate                    : 2 032 kb/s
Width                       : 984 pixels
Height                      : 412 pixels
Display aspect ratio        : 2.40:1
Frame rate mode             : Constant
Frame rate                  : 24.000 FPS
Color space                 : YUV
Chroma subsampling          : 4:2:0
Bit depth                   : 8 bits
Scan type                   : Progressive
Bits/(Pixel*Frame)          : 0.209
Stream size                 : 1.53 GiB (76%)
Title                       : Помста / Revenge (2017) AVC [ivanes20031987]
Writing library             : core 155 r2901 7d0ff22
Encoding settings           : cabac=1 / ref=12 / deblock=1:-3:-3 / analyse=0x3:0x113 / me=umh / subme=10 / psy=1 / psy_rd=1.00:0.00 / mixed_ref=1 / me_range=32 / chroma_me=1 / trellis=2 / 8x8dct=1 / cqm=0 / deadzone=21,11 / fast_pskip=0 / chroma_qp_offset=-2 / threads=12 / lookahead_threads=3 / sliced_threads=0 / nr=0 / decimate=1 / interlaced=0 / bluray_compat=0 / constrained_intra=0 / bframes=13 / b_pyramid=2 / b_adapt=2 / b_bias=0 / direct=1 / weightb=1 / open_gop=0 / weightp=2 / keyint=240 / keyint_min=24 / scenecut=40 / intra_refresh=0 / rc_lookahead=60 / rc=crf / mbtree=0 / crf=17.9 / qcomp=0.60 / qpmin=0 / qpmax=69 / qpstep=4 / vbv_maxrate=50000 / vbv_bufsize=62500 / crf_max=0.0 / nal_hrd=none / filler=0 / ip_ratio=1.40 / pb_ratio=1.30 / aq=1:1.00
Language                    : English
Default                     : Yes
Forced                      : No

Audio #1
ID                          : 2
Format                      : AC-3
Format/Info                 : Audio Coding 3
Commercial name             : Dolby Digital
Codec ID                    : A_AC3
Duration                    : 1 h 48 min
Bit rate mode               : Constant
Bit rate                    : 192 kb/s
Channel(s)                  : 2 channels
Channel layout              : L R
Sampling rate               : 48.0 kHz
Frame rate                  : 31.250 FPS (1536 SPF)
Bit depth                   : 16 bits
Compression mode            : Lossy
Stream size                 : 149 MiB (7%)
Title                       : MVO [Novyj] 2.0 [stereo] 192 Kbps
Language                    : Ukrainian
Service kind                : Complete Main
Default                     : Yes
Forced                      : No

Audio #2
ID                          : 3
Format                      : AC-3
Format/Info                 : Audio Coding 3
Commercial name             : Dolby Digital
Codec ID                    : A_AC3
Duration                    : 1 h 48 min
Bit rate mode               : Constant
Bit rate                    : 448 kb/s
Channel(s)                  : 6 channels
Channel layout              : L R C LFE Ls Rs
Sampling rate               : 48.0 kHz
Frame rate                  : 31.250 FPS (1536 SPF)
Bit depth                   : 16 bits
Compression mode            : Lossy
Stream size                 : 347 MiB (17%)
Title                       : Original, 5.1 448 Kbps
Language                    : English
Service kind                : Complete Main
Default                     : No
Forced                      : No

Text #1
ID                          : 4
Format                      : UTF-8
Codec ID                    : S_TEXT/UTF8
Codec ID/Info               : UTF-8 Plain Text
Duration                    : 1 h 43 min
Bit rate                    : 18 b/s
Count of elements           : 309
Stream size                 : 14.3 KiB (0%)
Title                       : Ukr Full [SubAutumn], edited by igor911 [Hurtom.com]
Language                    : Ukrainian
Default                     : No
Forced                      : No

Text #2
ID                          : 5
Format                      : UTF-8
Codec ID                    : S_TEXT/UTF8
Codec ID/Info               : UTF-8 Plain Text
Duration                    : 1 h 40 min
Bit rate                    : 8 b/s
Count of elements           : 254
Stream size                 : 6.47 KiB (0%)
Title                       : Eng Full
Language                    : English
Default                     : No
Forced                      : No


Код:
[info]: frame I:1170  Avg QP:15.71  size: 56918
[info]: frame P:38908 Avg QP:17.09  size: 20443
[info]: frame B:115648 Avg QP:19.24  size:  6795
[info]: consecutive B-frames:  4.6%  5.2% 10.8% 20.5% 17.6% 28.2%  5.3%  2.3%  2.7%  0.3%  0.1%  1.7%  0.2%  0.5%
[info]: mb I  I16..4:  6.3% 76.5% 17.2%
[info]: mb P  I16..4:  1.7% 15.0%  2.0%  P16..4: 33.9% 26.2% 13.9%  0.0%  0.0%    skip: 7.4%
[info]: mb B  I16..4:  0.2%  1.3%  0.3%  B16..8: 36.0% 13.3%  3.8%  direct: 5.5%  skip:39.6%  L0:43.8% L1:43.7% BI:12.5%
[info]: 8x8 transform intra:78.8% inter:63.7%
[info]: coded y,uvDC,uvAC intra: 83.2% 84.6% 64.9% inter: 24.9% 21.7% 4.4%
[info]: i16 v,h,dc,p: 41% 12%  7% 40%
[info]: i8 v,h,dc,ddl,ddr,vr,hd,vl,hu: 10% 10% 10%  9% 13% 12% 12% 11% 12%
[info]: i4 v,h,dc,ddl,ddr,vr,hd,vl,hu: 12%  9%  5%  9% 16% 14% 14% 10% 12%
[info]: i8c dc,h,v,p: 43% 22% 18% 17%
[info]: Weighted P-Frames: Y:6.6% UV:4.9%
[info]: ref P L0: 51.7% 10.9% 13.8%  5.7%  4.5%  3.3%  2.9%  1.7%  1.6%  1.3%  1.2%  1.1%  0.2%  0.0%
[info]: ref B L0: 72.6% 10.6%  5.6%  3.0%  2.2%  1.8%  1.5%  1.0%  0.8%  0.6%  0.2%
[info]: ref B L1: 94.9%  5.1%
[info]: kb/s:2031.61
Скріншоти
Джерело: & &
Подяка Bohdan237 та Electroz'у за українську доріжку та Ham_R за українізований постер.

26.08.2019 реліз оновлено - додано українське озвучення


 Трекер:    Зареєстрований   

Завантажити / скачати фільм українською



відео для новачків



 Зареєстрований:   2019-08-26 18:04
 Розмір:   2.02 GB 
 Оцінка фільму:   6.7/10 (Голосів: 34)
 ЗАЛИШАЙТЕСЬ ЯКОМОГА ДОВШЕ НА РОЗДАЧІ! ЗАВАНТАЖИВ САМ - ДАЙ ЗАВАНТАЖИТИ ІНШИМ!
   
Інші релізи
   Здохни (Помста) / Revenge (2017) 1080p Ukr/Eng | Sub Ukr/Eng -Star-Lord-  6 / 0   8.87 GB   2019-09-03 23:46 
   Здохни (Помста) / Revenge (2017) Remux 1080p Ukr/Eng | Sub Ukr/Eng staf777  4 / 0   19.69 GB   2019-08-26 23:05 
   Здохни (Помста) / Revenge (2017) 720p Ukr/Eng | Sub Ukr/Eng staf777  12 / 0   4.08 GB   2019-08-26 20:15 
   Здохни (Помста) / Revenge (2017) Electroz  26 / 0   1.27 GB   2019-08-26 15:58 
redcit 
VIP


З нами з: 21.12.10
Востаннє: 22.10.19
Повідомлень: 788

2019-02-20 15:22  
Розкішний трешачок. І до того ж стильно виглядає. Краще це, аніж розхвалений людьми "Я плюю на ваші могили".
Estranded 
VIP


З нами з: 09.02.14
Востаннє: 22.10.19
Повідомлень: 1411

2019-04-08 12:02  
Кайф, давно вже не бачив таких якісних трешаків. Сюжет, звісно ж, простий як двері. Але подання... Це щось з чимось. Помста вдалась на славу!
7/10 — для любителів кривавого місива

bot 
робот


З нами з: 30.09.07
Востаннє: 26.05.05
Повідомлень: 22331

2019-08-26 18:04  
Тему перенесено з Фільми до форуму Фільми


igor911

Anonymous 







2019-08-26 18:05  
Реліз оновлено - додано українське озвучення
merime 
Свій


З нами з: 14.02.12
Востаннє: 19.10.19
Повідомлень: 58

2019-08-26 19:59  
Респект за оригінальний переклад назви)
worotniv 
Новенький


З нами з: 09.09.13
Востаннє: 21.10.19
Повідомлень: 1

2019-08-26 23:49  
Давно я не бачив такого поганого фільму
В Робокопі і то менше фантастики

Apple 
Свій


З нами з: 13.07.08
Востаннє: 21.10.19
Повідомлень: 79

2019-08-27 21:01  
Тривалість фільму - 1,45 год
З такою кількістю акторів і тупих сцен, де нічого не відбувається, можна було зробити кототкометражку на 30 хв, яка чудово б зайшла.

Десь тихо плаче Мачете...

Не раджу. Вбив майже дві години. Добре, що поки дивився ще дещо робив.

подвох 
Новенький


З нами з: 29.03.18
Востаннє: 22.10.19
Повідомлень: 17

2019-08-27 21:35  
яке лайніще

Додано через 50 секунд:

це гірше петра олексійовича

Webber001 
Частий відвідувач


З нами з: 08.09.16
Востаннє: 17.10.19
Повідомлень: 44

2019-08-27 22:02  
подвох
"це гірше петра олексійовича"
Ви маєте на увазі кіно про "Пьйотра Пєрваго"?

fayct_ 
Новенький


З нами з: 25.07.19
Востаннє: 11.10.19
Повідомлень: 1

2019-08-28 20:25  
Відстій повний. Даремно витрачений час.
Стільки крові у них всіх разом не могло бути)))

ТиДиви 
Свій


З нами з: 03.01.17
Востаннє: 22.10.19
Повідомлень: 83

2019-08-29 18:36  
Краща дупка у Мейган Гуд, а у цієї Матільди Ганни Інґрід Лутз дупка як у неповнолітньої сексуально-непривабливої манекенниці, яка хворіє на анорексію з елементами метушливої атаки садомазохізму. Якби ж то Матільда Ганна Інґрід Лутз розпочала гойдати м'язи сідниць у тренажерному залі, тоді була би приваблива краля.
Десь є трохи схожість з фільмом Burn (2019).

werder482 
Свій


З нами з: 20.11.09
Востаннє: 15.10.19
Повідомлень: 70

2019-08-30 10:05  
Кіноляп з томатною пастою ... 3/10
anjey80 
Новенький


З нами з: 03.06.14
Востаннє: 22.10.19
Повідомлень: 6

2019-08-30 16:25  
Занадто трешово, повністю втрачено зв'язок з реальністю, можливо свідомо, якщо це вам не кидається у вічі, то можна дивитись. Додивлявся без ентузіазму, лише, щоб знати деталі The Endу.
_Alex_UA 
Поважний учасник


З нами з: 18.07.12
Востаннє: 20.10.19
Повідомлень: 158

2019-08-30 23:15  
дуже багато крові, але несподівано фільм "зайшов". можливо, під настрій Happy
Mongoose 
Свій


З нами з: 27.03.16
Востаннє: 21.10.19
Повідомлень: 142

2019-08-31 14:35  
Промотав за 7 хвилин
bissrib 
Свій


З нами з: 04.06.12
Востаннє: 21.10.19
Повідомлень: 67

2019-08-31 22:10  
Ну що тут хотіти? Happy
Фільм з яскраво вираженою феміністичною направленістю.
Перша робота режисера-жінки.
Задумувався, як треш, таким і вийшов.
Під час зйомок постійно не вистачало штучної крові, і її доводилося докуповувати. Happy
І при тому всьому фільм вийшов досить непоганим.
Звісно, до «Пристрели їх» далеко не дотягує, та все ж.
Це, швидше, комікс, а не фільм, але атмосферний, з хорошою музикою і яскравими емоціями.
Дивитись його не варто, якщо є щось ліпше для перегляду, але й ганити нема за що: бачили очі, що купували.

Apple 
Свій


З нами з: 13.07.08
Востаннє: 21.10.19
Повідомлень: 79

2019-09-01 03:04  
ТиДиви
я не знаю для чого розводити срач з дупками.
побажаю одного, щоб у твоєї обраниці вона була нормальною. бо переважно у всіх поціновувачів вдома або чортополох, або свиноматка.
дупа в малої, як дупа. хороша.

palmotron 
Новенький


З нами з: 27.11.08
Востаннє: 12.10.19
Повідомлень: 12

2019-09-14 21:57  
Кровава муть на разочок!
Ваш часовий пояс: GMT + 2 Години

Нова тема   Відповісти