Ліга Чемпіонів 2018/19 | Ліон - Барселона |1-й матч 1/8 (19.02.2019) -AVC

Нові коментарі

Нова тема   Відповісти
Останній раз роздавалося lokk234 (2020-01-07)
Автор Повідомлення
lokk234 
Новенький


З нами з: 05.03.14
Востаннє: 20.04.20
Повідомлень: 24

2019-02-20 02:06  
Ліга Чемпіонів 2018/19 | Ліон - Барселона |1-й матч 1/8 (19.02.2019) -AVC

Ліга Чемпіонів 2018/19 | Ліон - Барселона |1-й матч 1/8 (19.02.2019) -AVC


Телеканал: Футбол 2
Опис:
До вашої уваги 1-й матч 1/8 фіналу ЛЧ 2018/2019 між Ліоном та Барселоною.


Тривалість: 01:43:08
Якість:
Відео:
кодек: MPEG-2
розмір кадру: 1024 х 576
бітрейт: 1620 кб/с

Аудіо:
мова: українська
коментатор: Андрій Малиновський
кодек: 2.0
бітрейт: 224 кб/с
Скріншоти




Info:
General
ID : 1 (0x1)
Complete name : C:\Users\Admin\Documents\UEFA Champions League - last 16 1st leg. Olympique Lyon - FC Barcelona\
Format : MPEG-TS
File size : 701 MiB
Duration : 103mn 08s
Overall bit rate : 1 937 Kbps

Video
ID : 256 (0x100)
Menu ID : 1 (0x1)
Format : AVC
Format/Info : Advanced Video Codec
Format profile : [email protected]
Format settings, CABAC : Yes
Format settings, ReFrames : 1 frame
Codec ID : 27
Duration : 103mn 08s
Bit rate : 1 620 Kbps
Width : 1024 pixels
Height : 576 pixels
Display aspect ratio : 16:9
Frame rate : 25.000 fps
Standard : PAL
Color space : YUV
Chroma subsampling : 4:2:0
Bit depth : 8 bits
Scan type : Progressive
Bits/(Pixel*Frame) : 0.156
Stream size : 661 MiB (83%)

Audio
ID : 257 (0x101)
Menu ID : 1 (0x1)
Format :
Format/Info : Advanced Audio Codec
Format version : Version 4
Format profile : LC
Muxing mode : ADTS
Codec ID : 15
Duration : 103mn 08s
Bit rate mode : Constant
Bit rate : 224 Kbps
Channel(s) : 2 channels
Channel positions : Front: L R
Sampling rate : 44.1 KHz
Compression mode : Lossy
Delay relative to video : -17ms
Stream size : 91.4 MiB (12%)
Language : Ukrainian

Menu
ID : 4096 (0x1000)
Menu ID : 1 (0x1)
Duration : 103mn 08s
List : 256 (0x100) (AVC) / 257 (0x101) (, Ukrainian)
Language : / Ukrainian
Service name : Service01
Service provider : FFmpeg
Service type : digital television

Джерело:
Особиста оцінка: 9 - цікавий матч.

P. S. Перші 2хв. з дефектами (повязано з проблемами прямої трансляції першоджерела)


 Трекер:    Зареєстрований   

Завантажити / скачати торрент



відео для новачків



 Зареєстрований:   2019-02-20 02:06
 Розмір:   1.4 GB 
 Оцінка:   9.3/10 (Голосів: 3)
   
Ваш часовий пояс: GMT + 2 Години

Нова тема   Відповісти