The HARDKISS - Залізна ластівка (2018) | Pop-Rock

Нові коментарі

Нова тема   Відповісти
Останній раз роздавалося michalych (2020-05-26)
Автор Повідомлення
michalych 
Свій


З нами з: 14.09.10
Востаннє: 26.05.20
Повідомлень: 55

2019-02-19 19:46  
The HARDKISS - Залізна ластівка (2018) | Pop-Rock

The HARDKISS - Залізна ластівка (2018) | Pop-Rock


Стиль: Rock Pop
Країна, місто: Україна, Київ
Сайти: Офіційний сайт
Виконавці: Юлія Саніна, Валерій «Val» Бебко, DJ Kreechy, Клим Лисюк

Тривалість: 01:47:53
Якість:
Відео:
кодек:
розмір кадру: 1920 х 1080
бітрейт: 3045 кб/с

Аудіо:
мова: українська, english
кодек: 2.0
бітрейт: 128 кб/с

Субтитри:
мова: українська, english
тип: програмні (м'які), назви пісень
формат: *.
Info

General
Unique ID : 217191147297808768724647722136779023988 (0xA3657E510370519A9BA824C15AAEE674)
Complete name : D:\Downloads\Music\Video\Концерти\The HARDKISS - Залiзна ластiвка (Live 2018 Палац Спорту Київ)\The HARDKISS - Залiзна ластiвка (Live)(2018)[Палац Спорту Київ].
Format :
Format version : Version 4
File size : 2.39 GiB
Duration : 1 h 47 min
Overall bit rate : 3 175 kb/s
Movie name : The HARDKISS - Залiзна ластiвка (Live 2018. Палац Спорту. Київ )
Encoded date : UTC 2019-02-18 18:30:55
Writing application : v31.0.0 ('Dolores In A Shoestand') 64-bit
Writing library : libebml v1.3.6 + v1.4.9
Cover : Yes
Attachments : cover.jpg

Video
ID : 1
Format : AVC
Format/Info : Advanced Video Codec
Format profile : [email protected]
Format settings : CABAC / 3 Ref Frames
Format settings, CABAC : Yes
Format settings, ReFrames : 3 frames
Codec ID : V_MPEG4/ISO/AVC
Duration : 1 h 47 min
Bit rate : 3 045 kb/s
Width : 1 920 pixels
Height : 1 080 pixels
Display aspect ratio : 16:9
Frame rate mode : Constant
Frame rate : 25.000 FPS
Color space : YUV
Chroma subsampling : 4:2:0
Bit depth : 8 bits
Scan type : Progressive
Bits/(Pixel*Frame) : 0.059
Stream size : 2.29 GiB (96%)
Title : AVC 1080p
Default : Yes
Forced : No
Color range : Limited
Color primaries : BT.709
Transfer characteristics : BT.709
Matrix coefficients : BT.709

Audio
ID : 2
Format : LC
Format/Info : Advanced Audio Codec Low Complexity
Codec ID : A_AAC-2
Duration : 1 h 47 min
Bit rate : 128 kb/s
Channel(s) : 2 channels
Channel layout : L R
Sampling rate : 44.1 kHz
Frame rate : 43.066 FPS (1024 SPF)
Compression mode : Lossy
Stream size : 98.8 MiB (4%)
Title :
Language : Ukrainian
Default : Yes
Forced : No

Text
ID : 3
Format :
Codec ID : S_TEXT/
Codec ID/Info : Advanced Sub Station Alpha
Duration : 1 h 43 min
Bit rate : 2 b/s
Count of elements : 30
Compression mode : Lossless
Stream size : 1.74 KiB (0%)
Title : Playlist
Default : Yes
Forced : Yes

Menu
00:00:00.000 : :Intro
00:00:25.150 : uk:Антарктида
00:05:00.100 : uk:Астронавт
00:08:37.100 : en:Stones
00:14:27.060 : en:Free Me
00:18:05.210 : en:Tony Talk
00:21:53.230 : en:Fuck this beat
00:23:26.020 : en:Make-Up
00:27:16.160 : en:Shadows of Time
00:32:39.160 : uk:Де ти є
00:37:26.090 : uk:Серце
00:40:08.240 : uk:Хто, як не ти
00:43:45.230 : uk:Море
00:45:07.210 : uk:Кораблі
00:48:42.220 : uk:Коханці
00:52:49.150 : en:Complicity
00:56:53.190 : uk:Андромеда
00:58:56.000 : uk:Журавлі
01:03:09.110 : en:Rain
01:06:41.230 : en:Part of Me
01:10:50.060 : en:Does It Feel
01:16:00.000 : en:Perfection
01:20:22.120 : en:PiBiP
01:25:15.130 : uk:Мелодія
01:30:42.160 : uk:Прірва
01:35:25.090 : en:Forever More
01:39:24.040 : en:00:00
01:43:48.000 : en:Helpless
Треклист

Антарктида
Астронавт
Stones
Free Me
Tony Talk
Fuck this beat
Make-Up
Shadows of Time
Де ти є
Серце
Хто, як не ти
Море
Кораблі
Коханці
Complicity
Андромеда
Журавлі
Rain
Part of Me
Does It Feel
Perfection
PiBiP
Мелодія
Прірва
Forever More
00:00
Helpless
Скріншоти


Джерело:
Особиста оцінка: 10 - без зайвих вагань рекомендую всім!


Золотий реліз (завантажене не впливає на рейтинг)
 Трекер:    Зареєстрований   

Завантажити / скачати кліп українською



відео для новачків



 Зареєстрований:   2019-02-19 19:46
 Розмір:   2.39 GB 
 Оцінка кліпу:   10/10 (Голосів: 9)
   
sergiyko.5 
Попереджень: 1
Попереджень: 1 


З нами з: 25.02.16
Востаннє: 27.05.20
Повідомлень: 3127

2019-02-20 12:25  
The HARDKISS - Залiзна ластiвка (Live 2018. Палац Спорту. Київ)


11FrYkT 
Модератор відео


З нами з: 20.02.11
Востаннє: 27.05.20
Повідомлень: 6880

2019-02-20 14:38  
michalych написано:

Контейнер:

Розділи:є
Обкладинка:є

це лишнє, видаліть

michalych написано:
убтитри: форсовані - назви пісень

Розпишіть нормально

Скріншоти повинні бути у форматі ПНГ

Ваш часовий пояс: GMT + 2 Години

Нова тема   Відповісти