Близько / Close (2019) 1080p Ukr/Eng | Sub Eng

Нові коментарі

Нова тема   Відповісти
Автор Повідомлення
staf777 
Відео Гуртом - підтримка та поширення
Відео Гуртом - підтримка та поширення


З нами з: 16.11.16
Востаннє: 22.03.19
Повідомлень: 2196

2019-02-19 18:19  
Близько / Close (2019) 1080p Ukr/Eng | Sub Eng

Близько / Close (2019) 1080p Ukr/Eng | Sub Eng


Жанр: екшн, трилер
Країна: Велика Британія, США



Кінокомпанія: Jewson Film, Whitaker Media
Режисер: Вікі Джевісон
Актори: Нумі Рапас, Індіра Варма, Софі Нелісс, Овен Мекен, Чарлі Палмер Ротвелл, Акін Газі, Джордж Джорджиу, Крістофер Сіуреф, Олівія Джевісон

Сюжет:
Симпатичний, хоч і дуже простий, середньостатистичний жіночий бойовичок про боротьбу за виживання.

Головна героїня - жінка-експерт на ім’я Сем. Одного разу до неї звертаються колеги з проханням допомогти захистити розпещену дочку і спадкоємицю великої бізнес-імперії, якій дісталися колосальні статки після смерті батька. Справа в тому, що опинившись ні з чим, ображена вдова і мачуха молодої дівчини вирішує вбити небогу та заволодіти статками покійного чоловіка. Через кілька днів, під час перебування в іншій країні, на молоду дівчину починається справжнє полювання, і тепер Сем необхідно вжити екстрених заходів для захисту та евакуації охоронюваного об'єкта…


Тривалість: 01:34:38
Якість: 1080p

Відео:
кодек:
розмір кадру: 1920x1080
бітрейт: 3830 кб/с

Аудіо # 1:
мова: українська
переклад: багатоголосий закадровий | DniproFilm
кодек: 5.1
бітрейт: 384 кб/с

Аудіо # 2:
мова: англійська
переклад: оригінал
кодек: E- 5.1
бітрейт: 640 кб/с

Субтитри # 1-2:
мова: англійська (форсовані, повні)
тип: програмні (м'які)
формат: *.srt
Info
General
Unique ID : 179659286284366413970914684752321991835 (0x87291EB35AB5F944A3B9D7CF16A6549B)
Complete name : S:\» HD українською » Фільми в HD\Трилер\Close (2019) 1080p [UKR][ENG][Hurtom].
Format :
Format version : Version 4
File size : 3.20 GiB
Duration : 1 h 34 min
Overall bit rate mode : Variable
Overall bit rate : 4 838 kb/s
Movie name : Close (2019) 1080p [UKR][ENG][Hurtom]
Encoded date : UTC 2019-02-19 16:25:51
Writing application : v30.1.0 ('Forever And More') 64-bit
Writing library : libebml v1.3.6 + v1.4.9
Cover : Yes
Attachments : cover.png

Video
ID : 1
Format : AVC
Format/Info : Advanced Video Codec
Format profile : [email protected]
Format settings : CABAC / 3 Ref Frames
Format settings, CABAC : Yes
Format settings, ReFrames : 3 frames
Codec ID : V_MPEG4/ISO/AVC
Duration : 1 h 34 min
Bit rate mode : Variable
Bit rate : 3 830 kb/s
Maximum bit rate : 5 745 kb/s
Width : 1 920 pixels
Height : 1 080 pixels
Display aspect ratio : 16:9
Frame rate mode : Constant
Frame rate : 24.000 FPS
Color space : YUV
Chroma subsampling : 4:2:0
Bit depth : 8 bits
Scan type : Progressive
Bits/(Pixel*Frame) : 0.077
Stream size : 2.52 GiB (79%)
Writing library : core 148 r2715 7e75228
Encoding settings : cabac=1 / ref=3 / deblock=1:0:0 / analyse=0x1:0x111 / me=umh / subme=10 / psy=1 / psy_rd=1.00:0.00 / mixed_ref=1 / me_range=24 / chroma_me=1 / trellis=2 / 8x8dct=0 / cqm=0 / deadzone=21,11 / fast_pskip=1 / chroma_qp_offset=-2 / threads=8 / lookahead_threads=1 / sliced_threads=0 / nr=0 / decimate=1 / interlaced=0 / bluray_compat=0 / stitchable=1 / constrained_intra=0 / bframes=2 / b_pyramid=0 / b_adapt=2 / b_bias=0 / direct=3 / weightb=1 / open_gop=0 / weightp=2 / keyint=48 / keyint_min=25 / scenecut=0 / intra_refresh=0 / rc_lookahead=48 / rc=2pass / mbtree=1 / bitrate=3830 / ratetol=1.0 / qcomp=0.50 / qpmin=6 / qpmax=51 / qpstep=4 / cplxblur=20.0 / qblur=0.5 / vbv_maxrate=5745 / vbv_bufsize=7660 / nal_hrd=vbr / filler=0 / ip_ratio=1.40 / aq=1:1.00
Default : Yes
Forced : No

Audio #1
ID : 2
Format : AC-3
Format/Info : Audio Coding 3
Commercial name : Dolby Digital
Codec ID : A_AC3
Duration : 1 h 34 min
Bit rate mode : Constant
Bit rate : 384 kb/s
Channel(s) : 6 channels
Channel layout : L R C LFE Ls Rs
Sampling rate : 48.0 kHz
Frame rate : 31.250 FPS (1536 SPF)
Bit depth : 16 bits
Compression mode : Lossy
Stream size : 260 MiB (8%)
Title : MVO (DniproFilm)
Language : Ukrainian
Service kind : Complete Main
Default : Yes
Forced : Yes

Audio #2
ID : 3
Format : E-AC-3
Format/Info : Enhanced AC-3
Commercial name : Dolby Digital Plus
Codec ID : A_EAC3
Duration : 1 h 34 min
Bit rate mode : Constant
Bit rate : 640 kb/s
Channel(s) : 6 channels
Channel layout : L R C LFE Ls Rs
Sampling rate : 48.0 kHz
Frame rate : 31.250 FPS (1536 SPF)
Compression mode : Lossy
Stream size : 433 MiB (13%)
Language : English
Service kind : Complete Main
Default : No
Forced : No

Text #1
ID : 4
Format : UTF-8
Codec ID : S_TEXT/UTF8
Codec ID/Info : UTF-8 Plain Text
Duration : 32 min 14 s
Bit rate : 2 b/s
Count of elements : 16
Stream size : 545 Bytes (0%)
Title : Forced
Language : English
Default : No
Forced : No

Text #2
ID : 5
Format : UTF-8
Codec ID : S_TEXT/UTF8
Codec ID/Info : UTF-8 Plain Text
Duration : 1 h 33 min
Bit rate : 45 b/s
Count of elements : 1139
Stream size : 31.3 KiB (0%)
Language : English
Default : No
Forced : No
Скріншоти




Джерело: &
Особиста оцінка: 8 - мені сподобалося
Близько / Close (2019) 1080p Ukr/Eng | Sub Eng Близько / Close (2019) 1080p Ukr/Eng | Sub Eng


Авторський реліз (завантажувати можна без реєстрації)
 Трекер:    Зареєстрований   

Завантажити / скачати фільм українською



відео для новачків



 Зареєстрований:   2019-02-19 18:33
 Розмір:   3.2 GB 
 Оцінка фільму:   7.2/10 (Голосів: 17)
   
Інші релізи
   Близько / Close (2019) AVC Ukr/Eng | Sub Eng/Multi ssTAss  57 / 0   1.4 GB   2019-02-02 23:27 
   Близько / Close (2019) ssTAss  26 / 0   1.38 GB   2019-02-02 22:42 
Kottirweil 
Новенький


З нами з: 17.12.18
Востаннє: 19.02.19
Повідомлень: 3

2019-02-19 22:02  
Навіщо було змінювати назву файлу? Нехай би мультітрекер, гм ... обкладинка з тієї роздачі (Rutor) Wide grin
Все залишилося крім віддалених субтитрів ....
Підтримав би роздачу, ну вже скачав раніше з рутора ..

oberezny 
Свій


З нами з: 03.10.12
Востаннє: 22.03.19
Повідомлень: 85

2019-02-20 16:14  
Olivia Jewson = Олівія Джюсон, а не Джевісон; Christopher Sciueref = Крістофер Шуреф, а не Сіуреф.
staf777 
Відео Гуртом - підтримка та поширення
Відео Гуртом - підтримка та поширення


З нами з: 16.11.16
Востаннє: 22.03.19
Повідомлень: 2196

2019-03-03 12:18  
Kottirweil написано:
Навіщо було змінювати назву файлу? Нехай би мультітрекер, гм ... обкладинка з тієї роздачі (Rutor)

Щоб Ви запитали

Ваш часовий пояс: GMT + 2 Години

Нова тема   Відповісти