Якось у лісі (Одного разу в лісі) / Once Upon a Forest (1993) 1080p Ukr/Eng | Sub Ukr/Eng

Нові коментарі

Нова тема   Відповісти
Автор Повідомлення
xslim 
Відео Гуртом - фільмокрай
Відео Гуртом - фільмокрай


З нами з: 04.03.09
Востаннє: 06.03.21
Повідомлень: 1412

2019-02-19 15:45  
Якось у лісі / Once Upon a Forest (1993) 1080p Ukr/Eng | Sub Ukr/Eng

Якось у лісі (Одного разу в лісі) / Once Upon a Forest (1993) 1080p Ukr/Eng | Sub Ukr/Eng
Альтернативний постер:



Жанр: анімація, пригодницький, сімейний
Країна: США, Велика Британія



Кінокомпанія: Hanna-Barbera Productions, Harlech Television (HTV)
Режисер: Чарльз Гросвенор
Актори: Майкл Кроуфорд, Бен Верін, Елен Блейн, Бенджі Грегорі, Пейдж Госні, Елізабет Мосс, Пол Ейдінг.

Сюжет:
Лісова школа, в якій маленькі пухнастики пізнають світ. Вчить їх старий, мудрий борсук Корнеліус. Всього у класі навчаються 4 учні - мишка Ебігейл, кріт Едгар, їжачок Рассел і, найменша з класу, дівчинка-борсучок Мішель. Під час одного з уроків на природі вони виявляють асфальтову дорогу і стають свідками аварії вантажівки з цистерною, яка перевозила хімічні відходи. Цистерна, як і належить їй, протекла і смертоносні відходи потекли в бік поселення пухнастиків. У результаті аварії серйозно отруїлася Мішель, і вчитель Корнеліус відправив усіх учнів у важку подорож в сусідній ліс за лікарською травою.


Тривалість: 01:10:43
Якість: 1080p [AMZN]

Відео:
кодек:
розмір кадру: 1920 х 1080
бітрейт: 12,1 Мб/с

Аудіо # 1:
мова: українська
переклад: багатоголосий закадровий
кодек: 2.0 (стерео)
бітрейт: 192 кб/с

Аудіо # 2:
мова: англійська
переклад: оригінал
кодек: 2.0
бітрейт: 125 кб/с

Джерело озвучення:


Субтитри # 1:
мова: українська
тип: програмні (м'які)
формат: *.srt

Субтитри # 2:
мова: англійська
тип: програмні (м'які)
формат: *.srt
Info
General
Unique ID : 104997518273571285564700909993908829078 (0x4EFDC954FAE069AE6248866BA9E4FB96)
Complete name : D:\Once Upon a Forest (1993) [Ukr,Eng] AMZN 1080p [toloka.to] by Palamar.
Format :
Format version : Version 4
File size : 6.14 GiB
Duration : 1 h 10 min
Overall bit rate mode : Variable
Overall bit rate : 12.4 Mb/s
Encoded date : UTC 2019-02-19 12:48:30
Writing application : v31.0.0 ('Dolores In A Shoestand') 64-bit
Writing library : libebml v1.3.6 + v1.4.9

Video
ID : 1
Format : AVC
Format/Info : Advanced Video Codec
Format profile : [email protected]
Format settings : CABAC / 4 Ref Frames
Format settings, CABAC : Yes
Format settings, ReFrames : 4 frames
Codec ID : V_MPEG4/ISO/AVC
Duration : 1 h 10 min
Bit rate mode : Variable
Bit rate : 12.1 Mb/s
Maximum bit rate : 15.0 Mb/s
Width : 1 920 pixels
Height : 1 080 pixels
Display aspect ratio : 16:9
Frame rate mode : Constant
Frame rate : 23.976 (24000/1001) FPS
Color space : YUV
Chroma subsampling : 4:2:0
Bit depth : 8 bits
Scan type : Progressive
Bits/(Pixel*Frame) : 0.243
Stream size : 5.98 GiB (97%)
Writing library : core 148 r2623 d5b2374
Encoding settings : cabac=1 / ref=4 / deblock=1:-1:-1 / analyse=0x3:0x133 / me=umh / subme=9 / psy=1 / psy_rd=1.00:0.15 / mixed_ref=1 / me_range=24 / chroma_me=1 / trellis=2 / 8x8dct=1 / cqm=0 / deadzone=21,11 / fast_pskip=1 / chroma_qp_offset=-3 / threads=34 / lookahead_threads=5 / sliced_threads=0 / nr=150 / decimate=1 / interlaced=0 / bluray_compat=0 / constrained_intra=0 / bframes=8 / b_pyramid=2 / b_adapt=2 / b_bias=0 / direct=3 / weightb=1 / open_gop=0 / weightp=2 / keyint=120 / keyint_min=61 / scenecut=0 / intra_refresh=0 / rc_lookahead=120 / rc=crf / mbtree=1 / crf=18.0 / qcomp=0.60 / qpmin=0 / qpmax=69 / qpstep=4 / vbv_maxrate=15000 / vbv_bufsize=31250 / crf_max=0.0 / nal_hrd=vbr / filler=0 / ip_ratio=1.40 / aq=3:1.00
Default : Yes
Forced : No
Color range : Limited
Color primaries : BT.709
Transfer characteristics : BT.709
Matrix coefficients : BT.709

Audio #1
ID : 2
Format : AC-3
Format/Info : Audio Coding 3
Commercial name : Dolby Digital
Codec ID : A_AC3
Duration : 1 h 10 min
Bit rate mode : Constant
Bit rate : 192 kb/s
Channel(s) : 2 channels
Channel layout : L R
Sampling rate : 48.0 kHz
Frame rate : 31.250 FPS (1536 SPF)
Bit depth : 16 bits
Compression mode : Lossy
Stream size : 97.1 MiB (2%)
Title : TET
Language : Ukrainian
Service kind : Complete Main
Default : Yes
Forced : No

Audio #2
ID : 3
Format : LC
Format/Info : Advanced Audio Codec Low Complexity
Codec ID : A_AAC-2
Duration : 1 h 10 min
Bit rate : 125 kb/s
Channel(s) : 2 channels
Channel layout : L R
Sampling rate : 48.0 kHz
Frame rate : 46.875 FPS (1024 SPF)
Compression mode : Lossy
Stream size : 63.4 MiB (1%)
Title : Original
Language : English
Default : No
Forced : No

Text #1
ID : 4
Format : UTF-8
Codec ID : S_TEXT/UTF8
Codec ID/Info : UTF-8 Plain Text
Duration : 1 h 5 min
Bit rate : 51 b/s
Count of elements : 503
Stream size : 24.5 KiB (0%)
Language : Ukrainian
Default : No
Forced : No

Text #2
ID : 5
Format : UTF-8
Codec ID : S_TEXT/UTF8
Codec ID/Info : UTF-8 Plain Text
Duration : 1 h 4 min
Bit rate : 35 b/s
Count of elements : 532
Stream size : 16.7 KiB (0%)
Language : English
Default : No
Forced : No

Menu
00:00:00.000 : en:Chapter 1
00:02:06.459 : en:Chapter 2
00:10:55.613 : en:Chapter 3
00:14:10.266 : en:Chapter 4
00:19:51.857 : en:Chapter 5
00:22:21.214 : en:Chapter 6
00:24:45.108 : en:Chapter 7
00:34:13.217 : en:Chapter 8
00:37:10.061 : en:Chapter 9
00:40:46.402 : en:Chapter 10
00:49:18.497 : en:Chapter 11
00:55:41.463 : en:Chapter 12
00:59:14.175 : en:Chapter 13
01:02:06.931 : en:Chapter 14
01:03:01.027 : en:Chapter 15
01:04:58.644 : en:Chapter 16
Скріншоти







Джерело:
Особиста оцінка: 8 - мені сподобалося

Запис із ТБ, робота зі звуком: xSlim


Срібний реліз (на рейтинг впливає 50% завантаженого)
 Трекер:    Зареєстрований   

Завантажити / скачати мультфільм українською



відео для новачків



 Зареєстрований:   2019-02-19 15:45
 Розмір:   6.14 GB 
 Оцінка мультфільму:   8.7/10 (Голосів: 7)
   
xslim 
Відео Гуртом - фільмокрай
Відео Гуртом - фільмокрай


З нами з: 04.03.09
Востаннє: 06.03.21
Повідомлень: 1412

2019-02-19 16:16  
Мульфільм можна завантажити також і тут - https://drive.google.com/open?id=1w_3Rmgk0PPaQTMfnF8fPW_yIxK7Bs7qv
Ваш часовий пояс: GMT + 2 Години

Нова тема   Відповісти