Монстри проти прибульців / Monsters vs. Aliens (Сезон 1) (2013) AVC

Нові коментарі

Нова тема   Відповісти
Автор Повідомлення
sergiyko.5 
VIP


З нами з: 25.02.16
Востаннє: 17.02.20
Повідомлень: 2937

2019-02-19 12:23  


Монстри проти прибульців / Monsters vs. Aliens (Сезон 1) (2013) AVC

Монстри проти прибульців / Monsters vs. Aliens (Сезон 1) (2013) AVC

Жанр: пригоди, фантастика
Країна: США
Режисер: Метт Енгстром, Суніл Голл, Фред Осмонд
Актори: Ерік Едельштейн, Кріc О'Дауд, Дідріх Бадер, Рікі Ліндхоум, Кевін Майкл Річардсон, Джефф Беннетт, Гілліан Джейкобс, Фред Татаскьор

Сюжет:
Давненько жителі міста не брали участь в якомусь неймовірній пригоді. Кожен день вони згадують, як було цікаво з монстрами. І ось одного разу в їх спокійному містечку з'являється прибулець на ім'я Ковертон. На нашу планету він прибув для того, щоб пообіцяти президенту Америки гарантоване перемир'я. Тільки от не всі так просто, як може здатися з боку. І адже навіть ніхто не відчуває каверзи в цьому дивному візит. Виявляється, дивний гість прибув не просто так і лише прикрився обіцянкою світу. Насправді ж посол організації хоче перевірити обстановку для інопланетян, які замислюють не що інше, як завоювання Землі. Мультсеріал Монстри проти прибульців 1 сезон дивитися всі серії безкоштовно українською онлайн в хорошій якості.




Тривалість: 1 серія: 21:35 (цілком серій: 26 з 26)
Якість:

Відео: кодек: розмір кадру: 1024 х 576 бітрейт: 1000 кб/с
Аудіо: мова: українська переклад: багатоголосий закадровий кодек: 2.0 бітрейт: 128 кб/с
Озвучення:
Перелік серій
01 Вітаємо в зоні 50-ій "з чимось" - Welcome to Area Fifty-Something
02. Danger Wears a Diaper / The Toy From Another World
03. The Bath Effect / The Fruit of All Evil
04. Frenemy Mine / Maximum B.O.B.
05. It Came... on a Field Trip / Educational Television
06. Flipped Out / The Wormhole Has Turned!
07. The Two Faces of Dr. Cockroach / The Thing with One Brain
08. Night of the Living Dog / Attack of the Movie Night!
09. 98 Pound Cockroach / When Nature Shrieks
10. Screaming Your Calls / The Time Out That Wouldn't End
11. It Got Out of Hand / The Sound of Fear
12. Vornicarn
13 Легка необачність / Жодного слова на "К"
14 Загроза 5-го каналу / Залізна хватка
15 Шалена автівка / 20-тонна катастрофа
16 Жахіття зі шмарклями / В'язень темного виміру
17 Я пророкую жах / Знищити курча "Д"
18 Номер 7 / Друг, якого не було поруч
19 Таємниці доктора Каттера / Бешкетники захопили Землю
20 Прокляття чудовиська / Воно прийшло з рівня "3"
21 Гіганто-кіт / Мій монстр, мій учитель
22 Ухиляйся від м'яча / Він має вплив
23 Сквіп і боржники / Нескладений іспит
24 Немає кисню в їдальні / Перегони до кінця зон
25 Наречена інтернет / Невидима загроза (Нечутна також)
26 Якщо везіння підвернулося / Побачивши раз, не забудеш ніколи
Про файл:
General
Unique ID : 294878970048440388432495174162144738594 (0xDDD79FB3E38AD24241538B717FD6BD22)
Complete name : G:\Torrents2\MULT\MuSERIAL\Monsters vs. Aliens S01 \S01E02.Danger Wears a Diaper-The Toy From Another World..
Format :
Format version : Version 4
File size : 153 MiB
Duration : 21 min 35 s
Overall bit rate : 989 kb/s
Encoded date : UTC 2019-02-19 10:06:51
Writing application : v30.0.0 ('Interstellar') 64-bit
Writing library : libebml v1.3.6 + v1.4.9

Video
ID : 1
Format : AVC
Format/Info : Advanced Video Codec
Format profile : [email protected]
Format settings : CABAC / 6 Ref Frames
Format settings, CABAC : Yes
Format settings, ReFrames : 6 frames
Codec ID : V_MPEG4/ISO/AVC
Duration : 21 min 34 s
Bit rate : 859 kb/s
Width : 1 024 pixels
Height : 576 pixels
Display aspect ratio : 16:9
Frame rate mode : Constant
Frame rate : 25.000 FPS
Color space : YUV
Chroma subsampling : 4:2:0
Bit depth : 8 bits
Scan type : Progressive
Bits/(Pixel*Frame) : 0.058
Stream size : 133 MiB (87%)
Writing library : core 142 r2491 24e4fed
Encoding settings : cabac=1 / ref=6 / deblock=1:0:0 / analyse=0x3:0x113 / me=hex / subme=7 / psy=1 / psy_rd=1.00:0.00 / mixed_ref=1 / me_range=16 / chroma_me=1 / trellis=1 / 8x8dct=1 / cqm=0 / deadzone=21,11 / fast_pskip=1 / chroma_qp_offset=-2 / threads=12 / lookahead_threads=2 / sliced_threads=0 / nr=0 / decimate=1 / interlaced=0 / bluray_compat=0 / constrained_intra=0 / bframes=3 / b_pyramid=2 / b_adapt=1 / b_bias=0 / direct=1 / weightb=1 / open_gop=0 / weightp=2 / keyint=100 / keyint_min=10 / scenecut=40 / intra_refresh=0 / rc_lookahead=40 / rc=crf / mbtree=1 / crf=22.0 / qcomp=0.60 / qpmin=0 / qpmax=69 / qpstep=4 / vbv_maxrate=2000 / vbv_bufsize=4000 / crf_max=0.0 / nal_hrd=none / filler=0 / ip_ratio=1.41 / aq=1:1.00
Language : English
Default : Yes
Forced : No

Audio
ID : 2
Format : LC
Format/Info : Advanced Audio Codec Low Complexity
Codec ID : A_AAC-2
Duration : 21 min 35 s
Bit rate : 128 kb/s
Channel(s) : 2 channels
Channel layout : L R
Sampling rate : 44.1 kHz
Frame rate : 43.066 FPS (1024 SPF)
Compression mode : Lossy
Delay relative to video : -80 ms
Stream size : 19.8 MiB (13%)
Language : Ukrainian
Default : Yes
Forced : No
Скріншоти:



Запис: sergiyko


Бронзовий реліз (на рейтинг впливає 75% завантаженого)
 Трекер:    Зареєстрований   

Завантажити / скачати мультфільм українською



відео для новачків



 Зареєстрований:   2019-02-19 12:23
 Розмір:   3.82 GB 
 Оцінка мультсеріалу:   9.8/10 (Голосів: 8)
   
pintg 
Поважний учасник


З нами з: 14.04.16
Востаннє: 17.02.20
Повідомлень: 161

2019-07-29 00:28  
У частині серій переплутана послідовність.
Нічого критичного, бо під час перегляду я цього і не помітив.

Так наприклад у "11. It Got Out of Hand / The Sound of Fear" (7:45) можна бачити Стаабі, хоча вона прилетить лише згодом у "12. Vornicarn".

portal monster 
Забанено
Забанено


З нами з: 17.12.19
Востаннє: 17.12.19
Повідомлень: 1

2019-12-17 19:15  
Коли буде мультсеріал монстри проти прибульців на каналі ПлюсПлюс?


повторний профіль https://toloka.to/u1028070, видано igor911
Ваш часовий пояс: GMT + 2 Години

Нова тема   Відповісти