Зоряні війни: Оригінальна трилогія [Деспеціалізоване видання] / Star Wars: The Original trilogy [Despecialized Edition] (1977, 1980, 1983) 720p H.265 Ukr/Eng | Sub Ukr/Eng

Нові коментарі

Нова тема   Відповісти
Автор Повідомлення
birdcage 
Новенький


З нами з: 15.04.18
Востаннє: 13.11.19
Повідомлень: 16

2019-02-19 12:16  
Зоряні війни: Оригінальна трилогія [Деспеціалізоване видання] / Star Wars: The Original trilogy [Despecialized Edition] (1977, 1980, 1983) 720p H.265 Ukr/Eng | Sub Ukr/Eng

Зоряні війни: Оригінальна трилогія [Деспеціалізоване видання] / Star Wars: The Original trilogy [Despecialized Edition] (1977, 1980, 1983) 720p H.265 Ukr/Eng | Sub Ukr/Eng


Жанр: фантастика, екшн, пригодницький
Країна: США
Зоряні Війни / Star Wars (1977) 720p H.265 Ukr/Eng | Sub Ukr/Eng

Зоряні війни: Оригінальна трилогія [Деспеціалізоване видання] / Star Wars: The Original trilogy [Despecialized Edition] (1977, 1980, 1983) 720p H.265 Ukr/Eng | Sub Ukr/Eng
Оригінальний постер
Зоряні війни: Оригінальна трилогія [Деспеціалізоване видання] / Star Wars: The Original trilogy [Despecialized Edition] (1977, 1980, 1983) 720p H.265 Ukr/Eng | Sub Ukr/Eng


Кінокомпанія: Lucasfilm
Режисер: Джордж Лукас
Актори: Марк Хемілл, Гаррісон Форд, Керрі Фішер, Пітер Кашінг, Алек Гіннесс, Ентоні Деніелс, Кенні Бейкер, Девід Проуз, Пітер Мейхью, Джеймс Ерл Джонс

Сюжет:
На планеті-пустелі Татуїн сховалися залишки лицарів-джедаїв. Обі Ван Кенобі зумів врятувати Люка Скайвокера, коли той потрапляє в халепу, намагаючись знайти загубленого дроїда. Люк починає розуміти, що він є одним з лицарів Джедай. По всій галактиці йде громадянська війна, сили Імператора тіснять повстанців. До Обі Вану і Люка приєднується відчайдушний пілот Хан Соло і супроводжувані роботами R2D2 і С-ЗРО команда вилітає на пошуки принцеси Леї.


Тривалість: 02:01:45
Якість:
Відео:
кодек: HEVC/H.265
розмір кадру: 1280 х 540
бітрейт: 8999 кб/с

Аудіо # 1:
мова: англійська
переклад: оригінал
кодек: 2.0
бітрейт: 165 кб/с

Аудіо # 2:
мова: англійська
переклад: оригінал
кодек: 5.1
бітрейт: 640 кб/с

Аудіо # 3:
мова: українська
переклад: багатоголосий закадровий
кодек: 2.0
бітрейт: 163 кб/с

Аудіо # 4:
мова: українська
переклад: багатоголосий закадровий
кодек: 5.1
бітрейт: 448 кб/с

Субтитри:
мова: англійська
тип: програмні (м'які)
формат: *.srt

Субтитри:
мова: українська
тип: програмні (м'які)
формат: *.srt
Info
Video #1
ID : 1
Format : HEVC
Format/Info : High Efficiency Video Coding
Format profile : [email protected]
Codec ID : hvc1
Codec ID/Info : High Efficiency Video Coding
Duration : 2h 1mn
Bit rate : 8 999 Kbps
Width : 1 280 pixels
Height : 540 pixels
Display aspect ratio : 2.40:1
Frame rate mode : Variable
Frame rate : 23.976 fps
Minimum frame rate : 23.810 fps
Maximum frame rate : 24.390 fps
Color space : YUV
Chroma subsampling : 4:2:0
Bit depth : 8 bits
Bits/(Pixel*Frame) : 0.543
Stream size : 7.65 GiB (86%)
Language : English
Encoded date : UTC 2019-02-12 07:54:38
Tagged date : UTC 2019-02-12 07:58:44
Color primaries : BT.709
Transfer characteristics : BT.709
Matrix coefficients : BT.709

Video #2
ID : 3
Format : JPEG
Codec ID : jpeg
Duration : 2h 1mn
Bit rate mode : Variable
Bit rate : 7 397 bps
Width : 1 280 pixels
Height : 540 pixels
Display aspect ratio : 2.40:1
Frame rate mode : Variable
Frame rate : 0.007 fps
Minimum frame rate : 0.003 fps
Maximum frame rate : 0.126 fps
Color space : YUV
Chroma subsampling : 4:2:0
Bit depth : 8 bits
Compression mode : Lossy
Bits/(Pixel*Frame) : 1.529
Stream size : 6.30 MiB (0%)
Encoded date : UTC 2019-02-12 07:54:38
Tagged date : UTC 2019-02-12 07:58:44

Audio #1
ID : 4
Format :
Format/Info : Advanced Audio Codec
Format profile : LC
Codec ID : 40
Duration : 2h 1mn
Bit rate mode : Variable
Bit rate : 165 Kbps
Maximum bit rate : 254 Kbps
Channel(s) : 2 channels
Channel positions : Front: L R
Sampling rate : 48.0 KHz
Compression mode : Lossy
Stream size : 143 MiB (2%)
Language : English
Encoded date : UTC 2019-02-12 07:54:38
Tagged date : UTC 2019-02-12 07:58:44

Audio #2
ID : 5
Format : AC-3
Format/Info : Audio Coding 3
Mode extension : CM (complete main)
Format settings, Endianness : Big
Codec ID : ac-3
Duration : 2h 1mn
Bit rate mode : Constant
Bit rate : 640 Kbps
Channel(s) : 6 channels
Channel positions : Front: L C R, Side: L R, LFE
Sampling rate : 48.0 KHz
Bit depth : 16 bits
Compression mode : Lossy
Stream size : 554 MiB (6%)
Language : English
Encoded date : UTC 2019-02-12 07:54:38
Tagged date : UTC 2019-02-12 07:58:44

Audio #3
ID : 6
Format :
Format/Info : Advanced Audio Codec
Format profile : LC
Codec ID : 40
Duration : 2h 1mn
Bit rate mode : Variable
Bit rate : 163 Kbps
Maximum bit rate : 250 Kbps
Channel(s) : 2 channels
Channel positions : Front: L R
Sampling rate : 48.0 KHz
Compression mode : Lossy
Stream size : 142 MiB (2%)
Language : Ukrainian
Encoded date : UTC 2019-02-12 07:54:38
Tagged date : UTC 2019-02-12 07:58:44

Audio #4
ID : 7
Format : AC-3
Format/Info : Audio Coding 3
Mode extension : CM (complete main)
Format settings, Endianness : Big
Codec ID : ac-3
Duration : 2h 1mn
Bit rate mode : Constant
Bit rate : 448 Kbps
Channel(s) : 6 channels
Channel positions : Front: L C R, Side: L R, LFE
Sampling rate : 48.0 KHz
Bit depth : 16 bits
Compression mode : Lossy
Stream size : 390 MiB (4%)
Language : Ukrainian
Encoded date : UTC 2019-02-12 07:54:38
Tagged date : UTC 2019-02-12 07:58:44

Text #1
ID : 8
Format : Timed Text
Muxing mode : sbtl
Codec ID : tx3g
Duration : 1h 55mn
Bit rate mode : Variable
Bit rate : 72 bps
Stream size : 61.2 KiB (0%)
Language : English
Encoded date : UTC 2019-02-12 07:54:38
Tagged date : UTC 2019-02-12 07:58:31

Text #2
ID : 9
Format : Timed Text
Muxing mode : sbtl
Codec ID : tx3g
Duration : 1h 55mn
Bit rate mode : Variable
Bit rate : 105 bps
Stream size : 89.1 KiB (0%)
Language : Ukrainian
Encoded date : UTC 2019-02-12 07:54:38
Tagged date : UTC 2019-02-12 07:58:32
Скріншоти
Імперія завдає удару у відповідь / The Empire Strikes Back (1980) 720p H.265 Ukr/Eng | Sub Ukr/Eng

Зоряні війни: Оригінальна трилогія [Деспеціалізоване видання] / Star Wars: The Original trilogy [Despecialized Edition] (1977, 1980, 1983) 720p H.265 Ukr/Eng | Sub Ukr/Eng
Оригінальний постер
Зоряні війни: Оригінальна трилогія [Деспеціалізоване видання] / Star Wars: The Original trilogy [Despecialized Edition] (1977, 1980, 1983) 720p H.265 Ukr/Eng | Sub Ukr/Eng


Кінокомпанія: Lucasfilm
Режисер: Джордж Лукас
Актори: Марк Хемілл, Гаррісон Форд, Керрі Фішер, Пітер Кашінг, Алек Гіннесс, Ентоні Деніелс, Кенні Бейкер, Девід Проуз, Пітер Мейхью, Джеймс Ерл Джонс

Сюжет:
“Зірку Смерті” знищено, але війна все одно триває, а Дарт Вейдер шукає повстанців. Вони ховаються на планеті Хот, поверхня якої покрита льодами. За допомогою зондів-розвідників, спрямованих на пошуки повстанців по всій Галактиці, імперія знаходить їх і завдає удар. Ледве відбившись від загарбників, принцеса Лея, Люк і Хан Соло змушені покинути Хот. Люк направляється на планету Дагобу до майстра Йоди, щоб той навчив його керувати Силою, якою володіє хлопець. А Лею і Соло на планеті Беспін бере в полон темний лорд Дарт Вейдер. Побачивши тривожний сон, що його друзі в полоні, Люк вирушає їм на допомогу, не закінчивши навчання.


Тривалість: 02:05:02
Якість:
Відео:
кодек: HEVC/H.265
розмір кадру: 1278 х 540
бітрейт: 7000 кб/с

Аудіо # 1:
мова: англійська
переклад: оригінал
кодек: 2.0
бітрейт: 165 кб/с

Аудіо # 2:
мова: англійська
переклад: оригінал
кодек: 5.1
бітрейт: 448 кб/с

Аудіо # 3:
мова: українська
переклад: багатоголосий закадровий
кодек: 2.0
бітрейт: 164 кб/с

Аудіо # 4:
мова: українська
переклад: багатоголосий закадровий
кодек: 5.1
бітрейт: 448 кб/с

Субтитри:
мова: англійська
тип: програмні (м'які)
формат: *.srt

Субтитри:
мова: українська
тип: програмні (м'які)
формат: *.srt
Info
Video #1
ID : 1
Format : HEVC
Format/Info : High Efficiency Video Coding
Format profile : [email protected]
Codec ID : hvc1
Codec ID/Info : High Efficiency Video Coding
Duration : 2h 5mn
Bit rate : 7 000 Kbps
Width : 1 278 pixels
Height : 540 pixels
Display aspect ratio : 2.35:1
Frame rate mode : Variable
Frame rate : 23.976 fps
Minimum frame rate : 23.810 fps
Maximum frame rate : 24.390 fps
Color space : YUV
Chroma subsampling : 4:2:0
Bit depth : 8 bits
Bits/(Pixel*Frame) : 0.423
Stream size : 6.11 GiB (85%)
Language : English
Encoded date : UTC 2019-02-12 14:58:55
Tagged date : UTC 2019-02-12 15:02:32
Color primaries : BT.709
Transfer characteristics : BT.709
Matrix coefficients : BT.709

Video #2
ID : 3
Format : JPEG
Codec ID : jpeg
Duration : 2h 5mn
Bit rate mode : Variable
Bit rate : 4 895 bps
Width : 1 278 pixels
Height : 540 pixels
Display aspect ratio : 2.35:1
Frame rate mode : Variable
Frame rate : 0.007 fps
Minimum frame rate : 0.003 fps
Maximum frame rate : 0.037 fps
Color space : YUV
Chroma subsampling : 4:2:0
Bit depth : 8 bits
Compression mode : Lossy
Bits/(Pixel*Frame) : 1.013
Stream size : 4.17 MiB (0%)
Encoded date : UTC 2019-02-12 14:58:55
Tagged date : UTC 2019-02-12 15:02:31

Audio #1
ID : 4
Format :
Format/Info : Advanced Audio Codec
Format profile : LC
Codec ID : 40
Duration : 2h 5mn
Bit rate mode : Variable
Bit rate : 164 Kbps
Maximum bit rate : 245 Kbps
Channel(s) : 2 channels
Channel positions : Front: L R
Sampling rate : 48.0 KHz
Compression mode : Lossy
Stream size : 147 MiB (2%)
Language : Ukrainian
Encoded date : UTC 2019-02-12 14:58:55
Tagged date : UTC 2019-02-12 15:02:32

Audio #2
ID : 5
Format : AC-3
Format/Info : Audio Coding 3
Mode extension : CM (complete main)
Format settings, Endianness : Big
Codec ID : ac-3
Duration : 2h 5mn
Bit rate mode : Constant
Bit rate : 448 Kbps
Channel(s) : 6 channels
Channel positions : Front: L C R, Side: L R, LFE
Sampling rate : 48.0 KHz
Bit depth : 16 bits
Compression mode : Lossy
Stream size : 401 MiB (5%)
Language : Ukrainian
Encoded date : UTC 2019-02-12 14:58:55
Tagged date : UTC 2019-02-12 15:02:32

Audio #3
ID : 6
Format :
Format/Info : Advanced Audio Codec
Format profile : LC
Codec ID : 40
Duration : 2h 4mn
Bit rate mode : Variable
Bit rate : 165 Kbps
Maximum bit rate : 250 Kbps
Channel(s) : 2 channels
Channel positions : Front: L R
Sampling rate : 48.0 KHz
Compression mode : Lossy
Stream size : 147 MiB (2%)
Language : English
Encoded date : UTC 2019-02-12 14:58:55
Tagged date : UTC 2019-02-12 15:02:32

Audio #4
ID : 7
Format : AC-3
Format/Info : Audio Coding 3
Mode extension : CM (complete main)
Format settings, Endianness : Big
Codec ID : ac-3
Duration : 2h 4mn
Bit rate mode : Constant
Bit rate : 448 Kbps
Channel(s) : 6 channels
Channel positions : Front: L C R, Side: L R, LFE
Sampling rate : 48.0 KHz
Bit depth : 16 bits
Compression mode : Lossy
Stream size : 400 MiB (5%)
Language : English
Encoded date : UTC 2019-02-12 14:58:55
Tagged date : UTC 2019-02-12 15:02:32

Text #1
ID : 8
Format : Timed Text
Muxing mode : sbtl
Codec ID : tx3g
Duration : 1h 59mn
Bit rate mode : Variable
Bit rate : 82 bps
Stream size : 71.6 KiB (0%)
Language : Ukrainian
Encoded date : UTC 2019-02-12 14:58:55
Tagged date : UTC 2019-02-12 15:02:22

Text #2
ID : 9
Format : Timed Text
Muxing mode : sbtl
Codec ID : tx3g
Duration : 1h 59mn
Bit rate mode : Variable
Bit rate : 56 bps
Stream size : 49.1 KiB (0%)
Language : English
Encoded date : UTC 2019-02-12 14:58:55
Tagged date : UTC 2019-02-12 15:02:22
Скріншоти
[/url]
Повернення Джедая / Return of the Jedi (1983) 720p H.265 Ukr/Eng | Sub Ukr/Eng

Зоряні війни: Оригінальна трилогія [Деспеціалізоване видання] / Star Wars: The Original trilogy [Despecialized Edition] (1977, 1980, 1983) 720p H.265 Ukr/Eng | Sub Ukr/Eng
Оригінальний постер
Зоряні війни: Оригінальна трилогія [Деспеціалізоване видання] / Star Wars: The Original trilogy [Despecialized Edition] (1977, 1980, 1983) 720p H.265 Ukr/Eng | Sub Ukr/Eng


Кінокомпанія: Lucasfilm
Режисер: Джордж Лукас
Актори: Марк Хемілл, Гаррісон Форд, Керрі Фішер, Пітер Кашінг, Алек Гіннесс, Ентоні Деніелс, Кенні Бейкер, Девід Проуз, Пітер Мейхью, Джеймс Ерл Джонс

Сюжет:
Люк Скайвокер, принцеса Лейя і два вірних дроїда R2-D2 і C-3PО визволяють з полону свого друга Хана Соло, що потрапив у пастку Джабби Хатта. Але попереду на них чекає ще більш небезпечна битва. Сили імперії будують космічну станцію «Зірка смерті», яка може підірвати цілу планету. Щоб знищити цю смертельну зброю, повстанці висаджуються на планету Ендор. Від підсумку останньої сутички залежить доля галактики ...


Тривалість: 02:11:52
Якість:
Відео:
кодек: HEVC/H.265
розмір кадру: 1280 х 540
бітрейт: 7000 кб/с

Аудіо # 1:
мова: англійська
переклад: оригінал
кодек: 2.0
бітрейт: 165 кб/с

Аудіо # 2:
мова: англійська
переклад: оригінал
кодек: 5.1
бітрейт: 448 кб/с

Аудіо # 3:
мова: українська
переклад: багатоголосий закадровий
кодек: 2.0
бітрейт: 163 кб/с

Аудіо # 4:
мова: українська
переклад: багатоголосий закадровий
кодек: 5.1
бітрейт: 448 кб/с

Субтитри:
мова: англійська
тип: програмні (м'які)
формат: *.srt

Субтитри:
мова: українська
тип: програмні (м'які)
формат: *.srt
Info
Video #1
ID : 1
Format : HEVC
Format/Info : High Efficiency Video Coding
Format profile : [email protected]
Codec ID : hvc1
Codec ID/Info : High Efficiency Video Coding
Duration : 2h 11mn
Bit rate : 7 000 Kbps
Width : 1 280 pixels
Height : 540 pixels
Display aspect ratio : 2.40:1
Frame rate mode : Variable
Frame rate : 23.976 fps
Minimum frame rate : 23.810 fps
Maximum frame rate : 24.390 fps
Color space : YUV
Chroma subsampling : 4:2:0
Bit depth : 8 bits
Bits/(Pixel*Frame) : 0.422
Stream size : 6.45 GiB (85%)
Language : English
Encoded date : UTC 2019-02-12 23:31:37
Tagged date : UTC 2019-02-12 23:34:56
Color primaries : BT.709
Transfer characteristics : BT.709
Matrix coefficients : BT.709

Video #2
ID : 3
Format : JPEG
Codec ID : jpeg
Duration : 2h 11mn
Bit rate mode : Variable
Bit rate : 4 858 bps
Width : 1 280 pixels
Height : 540 pixels
Display aspect ratio : 2.40:1
Frame rate mode : Variable
Frame rate : 0.006 fps
Minimum frame rate : 0.003 fps
Maximum frame rate : 0.053 fps
Color space : YUV
Chroma subsampling : 4:2:0
Bit depth : 8 bits
Compression mode : Lossy
Bits/(Pixel*Frame) : 1.171
Stream size : 4.83 MiB (0%)
Encoded date : UTC 2019-02-12 23:31:37
Tagged date : UTC 2019-02-12 23:34:55

Audio #1
ID : 4
Format :
Format/Info : Advanced Audio Codec
Format profile : LC
Codec ID : 40
Duration : 2h 11mn
Bit rate mode : Variable
Bit rate : 165 Kbps
Maximum bit rate : 259 Kbps
Channel(s) : 2 channels
Channel positions : Front: L R
Sampling rate : 48.0 KHz
Compression mode : Lossy
Stream size : 155 MiB (2%)
Language : English
Encoded date : UTC 2019-02-12 23:31:37
Tagged date : UTC 2019-02-12 23:34:56

Audio #2
ID : 5
Format : AC-3
Format/Info : Audio Coding 3
Mode extension : CM (complete main)
Format settings, Endianness : Big
Codec ID : ac-3
Duration : 2h 11mn
Bit rate mode : Constant
Bit rate : 448 Kbps
Channel(s) : 6 channels
Channel positions : Front: L C R, Side: L R, LFE
Sampling rate : 48.0 KHz
Bit depth : 16 bits
Compression mode : Lossy
Stream size : 422 MiB (5%)
Language : English
Encoded date : UTC 2019-02-12 23:31:37
Tagged date : UTC 2019-02-12 23:34:56

Audio #3
ID : 6
Format :
Format/Info : Advanced Audio Codec
Format profile : LC
Codec ID : 40
Duration : 2h 11mn
Bit rate mode : Variable
Bit rate : 163 Kbps
Maximum bit rate : 249 Kbps
Channel(s) : 2 channels
Channel positions : Front: L R
Sampling rate : 48.0 KHz
Compression mode : Lossy
Stream size : 154 MiB (2%)
Language : Ukrainian
Encoded date : UTC 2019-02-12 23:31:37
Tagged date : UTC 2019-02-12 23:34:56

Audio #4
ID : 7
Format : AC-3
Format/Info : Audio Coding 3
Mode extension : CM (complete main)
Format settings, Endianness : Big
Codec ID : ac-3
Duration : 2h 11mn
Bit rate mode : Constant
Bit rate : 448 Kbps
Channel(s) : 6 channels
Channel positions : Front: L C R, Side: L R, LFE
Sampling rate : 48.0 KHz
Bit depth : 16 bits
Compression mode : Lossy
Stream size : 423 MiB (5%)
Language : Ukrainian
Encoded date : UTC 2019-02-12 23:31:37
Tagged date : UTC 2019-02-12 23:34:56

Text
ID : 8
Format : Timed Text
Muxing mode : sbtl
Codec ID : tx3g
Duration : 2h 3mn
Bit rate mode : Variable
Bit rate : 65 bps
Stream size : 59.0 KiB (0%)
Language : Ukrainian
Encoded date : UTC 2019-02-12 23:31:37
Tagged date : UTC 2019-02-12 23:34:44
Скріншоти

Про видання

Деспеціалізоване видання оригінальної трилогії Зоряних Війн було створено групою вірних фанатів після виходу саги на Blu-ray (2011). Вихід Blu-ray, а точніше ті зміни які відбулись саме у оригінальній трилогії у виданні 2011р, стали ще більшим розчаруванням ніж спеціальне видання 1997 та DVD 2004. В результаті фани взялись відновлювати оригінальні фільми самотужки із доступних матеріалів. За основу було взято матеріали саме з Blu-ray (2011), і завдяки цьому розробники змогли зробити видання у HD якості, основним джерелом не змінених сцен послужила копія оригінальної трилогії 1993р, копія яку видали тако ж на DVD 2006р як бонус, серед фанатів відома як "Єдине незмінене видання Джорджа", Geoge's Original Unaltered Trilogy, коротко GOUT -нажаль копія в надто поганій якості , тому багато сцен буле реставровано та склеєно із чатин. Окрім офіційних, широкодоступних матеріалів, деякі екзотичні сцени були отримані за допомогою скану 35мм - плівки, зробленого в домашніх умовах, сама ж плівка опапала у руки розробників випадково. Ще одним допоміжним джерелом стала копія 16мм плівки, під назвою Puggo Grande. Останє джерело група стоп-кадрів 35мм плівки, надіслана фанатам від анонімних колекціонерів. В результаті було максимально відтворену трилогію по відношенню до прокатних версій 1977/1980/1983 р. Нажаль на сьогоднішній день це єдине видання настільки наближене до оригінальних фільмів у форматі HD. І оскільки фільми на плівках можуть проіснувати не більше 30 -40 років, в недалекому майбутньому видання Despecialized Edition може залишитись єдиною цифровою копією максимально наближеною до прокатних оригіналів. Надія все ж залишаєть, що після продажу прав на Зоряні Віни та компанії Лукасфілм, Джорджем Лукасом, нові власники зроблять офіційне перевидання оригінальних, незмінних фільмів у високій якості.
Джерело:
Особиста оцінка: 10 - без зайвих вагань рекомендую всім!



Реліз підготовлений для перегляду в iTunes , Apple TV, iPhone, iPad
Для перегляду данного релізу на PC рекомендується iTunes for Windows або VLC media player


Срібний реліз (на рейтинг впливає 50% завантаженого)
 Трекер:    Зареєстрований   

Завантажити / скачати фільм українською



відео для новачків



 Зареєстрований:   2019-02-19 12:16
 Розмір:   23.66 GB 
 Оцінка фільму:   10/10 (Голосів: 16)
   
-Star-Lord- 
VIP


З нами з: 09.08.18
Востаннє: 15.11.19
Повідомлень: 1267

2019-02-19 12:32  
В 1080p буде?
birdcage 
Новенький


З нами з: 15.04.18
Востаннє: 13.11.19
Повідомлень: 16

2019-02-19 12:50  
-Star-Lord-
не буде

leicheman 
Відео Гуртом - фільмокрай
Відео Гуртом - фільмокрай


З нами з: 03.07.14
Востаннє: 15.11.19
Повідомлень: 4184

2019-02-19 13:36  
birdcage написано:
а точніше ті зміни які відбулись саме у оригінальній трилогії у виданні 2011р


а що там кіношники наробили на блюрі, що довелося так морочитися фанам і збирати усе це?

birdcage 
Новенький


З нами з: 15.04.18
Востаннє: 13.11.19
Повідомлень: 16

2019-02-19 15:37  
leicheman
- замінили велику кілкість сцен на графіку
- доробили велику кількість сцен , добавили різні об'єкти, персонажі, ефекти
- замінили деяких персонажів на цифрових
- перемалювали Сокіл 1000
- вирізали актора Дарта Вейдера, замінили на актора що грав Енекіна
- деякі епізоди після доробок стали не логічні
- переробили оупенінг

alexhap 
Новенький


З нами з: 23.09.16
Востаннє: 14.11.19
Повідомлень: 16

2019-02-19 16:05  
чи відомі якісь пояснення чому в першій частині вибрано бітрейт: 8999 кб/с (в інших 7000 кб/с) ?
чому в другій частині розмір кадру: 1278 х 540 і співвідношення 2.35:1, коли в двох інших 1280 х 540 при 2.40:1?

Додано через 5 хвилин 27 секунд:

leicheman написано:
а що там кіношники наробили на блюрі, що довелося так морочитися фанам і збирати усе це?


https://www.youtube.com/watch?v=dHfLX_TMduY
але я не впевнений що це порівняння стосується саме викладеного випуску

birdcage 
Новенький


З нами з: 15.04.18
Востаннє: 13.11.19
Повідомлень: 16

2019-02-19 18:16  
alexhap написано:

чи відомі якісь пояснення чому в першій частині вибрано бітрейт: 8999 кб/с (в інших 7000 кб/с) ?
чому в другій частині розмір кадру: 1278 х 540 і співвідношення 2.35:1, коли в двох інших 1280 х 540 при 2.40:1?

1фільм я кодував з ремукса, 2-3 в такому вигляді отримав - від цього різниця бітрейтів, про розмір кадрів - не маю поняття

igor911 
Модератор відео


З нами з: 18.01.08
Востаннє: 15.11.19
Повідомлень: 13651

2019-02-20 00:00  
birdcage написано:
Аудіо # 1:
мова: англійська

Правила оформлення написано:
Українська доріжка повинна бути першою не тільки в описі, але і у самому контейнері


Додано через 46 секунд:

треба перемуксувати файли, виставивши укр. доріжки першими після відео.

Додано через 4 хвилини:

також треба вказати джерело укр.доріжок (телеканал) та зазначити, якщо є місця без озвучення

українські субтитри повні? якщо ні - вказати це в описі і прибрати з заголовків

-VJ- 
VIP


З нами з: 01.11.09
Востаннє: 14.11.19
Повідомлень: 718

2019-02-20 13:51  
leicheman
простий приклад Happy

leicheman 
Відео Гуртом - фільмокрай
Відео Гуртом - фільмокрай


З нами з: 03.07.14
Востаннє: 15.11.19
Повідомлень: 4184

2019-02-21 16:40  
-VJ- написано:
простий приклад

Я так розумію, що коли у кіно показували у ті часи то були одні персонажі - сцени, А коли вийшов двд та блюр їх замінили? А тепер фанати зробили, як було у перших показах?

+380954897458 
VIP


З нами з: 02.06.17
Востаннє: 15.11.19
Повідомлень: 476

2019-02-21 19:27  
Дійсно цікаво було б передивитися. Бо Хейден Крістенсен замість Себастіана Шоу просто добиває...
-VJ- 
VIP


З нами з: 01.11.09
Востаннє: 14.11.19
Повідомлень: 718

2019-02-22 12:10  
+380954897458 написано:
Дійсно цікаво було б передивитися. Бо Хейден Крістенсен замість Себастіана Шоу просто добиває...


В цій трилогії в переробленому вигляді він з'являється на дві секунди в кінці 6 епізоду - хіба він цим може добити? Happy

leicheman написано:
коли у кіно показували у ті часи то були одні персонажі - сцени, А коли вийшов двд та блюр їх замінили


Так. За часів совка в кінотеатр я ходив саме на такий варіант. З сином вже, звісно, дивився оновлену версію - було цікаво порівняти.
Там навіть не сцени - весь фільм "почистили", змінили кольорову гаму, додали купу сучасних комп'ютерних персонажів...
Порівняйте

Koful 
VIP


З нами з: 05.12.16
Востаннє: 14.11.19
Повідомлень: 279

2019-02-22 13:29  
Я тут не так давно знайшов скан з плівки ще "тих часів" 4 і 5 епізодів, з потертою плівкою, шумом тертя в тихих сценах. Ледь сльозу не пустив від ностальгії )) ото справжній кайф а не ці ваші АШДІ
Скріншот


+380954897458 
VIP


З нами з: 02.06.17
Востаннє: 15.11.19
Повідомлень: 476

2019-02-22 20:11  
-VJ-
Хейден Крістенсен може добити навіть кількома секундами :-) А в оновленій версії він аж двічі з'являється. Цього подвійного удару моя неврівноважена психіка не витримує! Я ж бо викарбував у своєму серці зовсім інший образ, а тут Вейдер знімає маску і, о Боже ж мій... Що ж ти, Лукасе, накоїв?

-VJ- 
VIP


З нами з: 01.11.09
Востаннє: 14.11.19
Повідомлень: 718

2019-02-22 21:41  
+380954897458
Один раз. Там, де з нього знімають маску, актора не перемальовували.

+380954897458 
VIP


З нами з: 02.06.17
Востаннє: 15.11.19
Повідомлень: 476

2019-02-23 19:44  
-VJ-
Можу записягтися, що бачив версію, де Вейдер знімає маску, а під нею понівечина і обпалена морда Крістенсена, така як у "Помсті ситхів" після бою з Обі-Ваном. Може існує кілька оновлених версій, не знаю, але сплутати з лицем Шоу, яке бачив багато разів на VHS і по телевізору, я не міг ніяк.

MishaPidperigora 
Новенький


З нами з: 17.10.18
Востаннє: 08.11.19
Повідомлень: 1

2019-09-10 19:44  
-Star-Lord-канєшно ж буде, у 70-80х знімали у FullHD..
+380954897458 
VIP


З нами з: 02.06.17
Востаннє: 15.11.19
Повідомлень: 476

2019-09-10 20:53  
MishaPidperigora
Не треба забувати, що зараз дуже якісно вміють реставрувати і оцифровувати старі фільми ( і дай їм Бог здоров'я за це). Старі фільми на Блюреях виглядають навіть краще ніж нові, бо мають природні барви, без всіляких кольорових фільтрів чи комп'ютерної обробки зображення.

zoomymba2012 
VIP


З нами з: 08.01.15
Востаннє: 15.11.19
Повідомлень: 643

2019-11-14 10:26  
+380954897458 написано:
Хейден Крістенсен може добити навіть кількома секундами :-)

Актор не поганий, і зіграв він правильно і цікаво персонажа. Правда фрази ппц які дурні мав) а це вже не його проблема.

Ваш часовий пояс: GMT + 2 Години

Нова тема   Відповісти