Високий блондин у чорному черевику, Повернення високого блондина. Дилогія / Le grand blond avec une chaussure noire, Le retour du grand blond. Dilogy (1972-1974) Remux 1080p 2хUkr/Fre | Sub Fre

Нові коментарі

Нова тема   Відповісти
Автор Повідомлення
MakRA 
Поважний учасник


З нами з: 11.11.18
Востаннє: 23.04.19
Повідомлень: 174

2019-02-19 04:08  
Високий блондин у чорному черевику, Повернення високого блондина. Дилогія / Le grand blond avec une chaussure noire, Le retour du grand blond. Dilogy (1972-1974) Remux 1080p 2хUkr/Fre | Sub Fre

Високий блондин у чорному черевику, Повернення високого блондина. Дилогія / Le grand blond avec une chaussure noire, Le retour du grand blond. Dilogy (1972-1974) Remux 1080p 2хUkr/Fre | Sub Fre


Український постер:

Високий блондин у чорному черевику, Повернення високого блондина. Дилогія / Le grand blond avec une chaussure noire, Le retour du grand blond. Dilogy (1972-1974) Remux 1080p 2хUkr/Fre | Sub Fre


Жанр: комедія, пригодницький
Країна: Франція
Кінокомпанія: Gaumont, Les Productions de la Gueville, Madeleine Films
Режисер: Ів Робер [Yves Robert]
Продюсер: Ів Робер [Yves Robert], Алан Пуаре [Jean-Marie Poiré]
Сценарист: Ів Робер [Yves Robert], Франсіс Вебер [Francis Veber]
Композитор: Владимир Косма [Vladimir Cosma]
Високий блондин у чорному черевику / Le grand blond avec une chaussure noire (1972) Remux 1080p 2хUkr/Fre | Sub Fre






Актори: П'єр Рішар [Pierre Richard], Мірей Дарк [Mireille Darc], Бернар Бліе [Bernard Blier], Жан Рошфор [Jean Rochefort], Поль ле Персон [Paul Le Person], Жан Карме [Jean Carmet], Колетт Кастель [Colette Castel], Жан Об [Jean Obe], Робер Дальбан [Robert Dalban], Жан Содре [Jean Saudray], Мішель Дюшоссуа [Michel Duchaussoy], Анрі Гібе [Henri Guybet], Герве Сан [Hervé Sand].

Сюжет:
Ексцентричний скрипаль Франсуа Перен, повертаючись з концерту в Мюнхені, стає центральним персонажем розборок спецслужб. Він потрапляє в масу кумедних, смішних, часто навіть небезпечних ситуацій. Сам того не підозрюючи, спритно обходить всі поставлені пастки, умудряючись до останнього не розуміти, що з ним відбувається.


Тривалість: 01:29:33
Якість: Remux 1080p
Відео:
кодек:
розмір кадру: 1920 х 1080
бітрейт: 32,2 Мб/с

Аудіо # 1:
мова: українська
переклад: багатоголосий закадровий [K1] [ENTER]
кодек: 2.0
бітрейт: 192 кб/с
Інформація про озвучення:

Ролі озвучили: Анатолій Пашнін, Володимир Терещук, Євген Пашин і один жіночий голос
Аудіо # 2:
мова: українська
переклад: двоголосий закадровий [2+2]
кодек: 2.0
бітрейт: 192 кб/с
Інформація про озвучення:
Аудіо # 3:
мова: французька
переклад: оригінал
кодек: -HD MA 2.0
бітрейт: 843 кб/с

Субтитри # 1: (SDH)
мова: французька
тип: пререндерні
формат: *.pgs

Субтитри # 2:
мова: англійська
тип: пререндерні
формат: *.pgs
Info
General
Unique ID : 119911237199505373059781456364812305375 (0x5A361071F95640D73CFCB21F8C4703DF)
Complete name : F:\Комедії\Високий блондин у чорному черевику. Колекція\Le grand blond avec une chaussure noire (1972-1974) Remux 1080p 2хUkrFre Sub Fre [Hurtom].
Format :
Format version : Version 4 / Version 2
File size : 20.9 GiB
Duration : 1 h 29 min
Overall bit rate mode : Variable
Overall bit rate : 33.5 Mb/s
Movie name : Високий блондин у чорному черевику / Le grand blond avec une chaussure noire (1972) Remux 1080p 2хUkr/Fre | Sub Fre [Hurtom]
Encoded date : UTC 2019-02-17 16:31:53
Writing application : v25.0.0 ('Prog Noir') 64-bit
Writing library : libebml v1.3.6 + v1.4.9

Video
ID : 1
Format : AVC
Format/Info : Advanced Video Codec
Format profile : [email protected]
Format settings, CABAC : Yes
Format settings, RefFrames : 4 frames
Format settings, GOP : M=3, N=24
Codec ID : V_MPEG4/ISO/AVC
Duration : 1 h 29 min
Bit rate mode : Variable
Bit rate : 32.2 Mb/s
Maximum bit rate : 35.0 Mb/s
Width : 1 920 pixels
Height : 1 080 pixels
Display aspect ratio : 16:9
Frame rate mode : Constant
Frame rate : 24.000 FPS
Standard : NTSC
Color space : YUV
Chroma subsampling : 4:2:0
Bit depth : 8 bits
Scan type : Progressive
Bits/(Pixel*Frame) : 0.647
Stream size : 20.2 GiB (96%)
Title : Le grand blond avec une chaussure noire (1972) Remux 1080p 2хUkr/Fre | Sub Fre [Hurtom]
Language : Ukrainian
Default : Yes
Forced : Yes
Color range : Limited
Color primaries : BT.709
Transfer characteristics : BT.709
Matrix coefficients : BT.709

Audio #1
ID : 2
Format : AC-3
Format/Info : Audio Coding 3
Format settings, Endianness : Big
Codec ID : A_AC3
Duration : 1 h 29 min
Bit rate mode : Constant
Bit rate : 192 kb/s
Channel(s) : 2 channels
Channel positions : Front: L R
Sampling rate : 48.0 kHz
Frame rate : 31.250 FPS (1536 SPF)
Bit depth : 16 bits
Compression mode : Lossy
Stream size : 123 MiB (1%)
Title : MVO [K1] [ENTER]
Language : Ukrainian
Service kind : Complete Main
Default : Yes
Forced : No

Audio #2
ID : 3
Format : AC-3
Format/Info : Audio Coding 3
Format settings, Endianness : Big
Codec ID : A_AC3
Duration : 1 h 29 min
Bit rate mode : Constant
Bit rate : 192 kb/s
Channel(s) : 2 channels
Channel positions : Front: L R
Sampling rate : 48.0 kHz
Frame rate : 31.250 FPS (1536 SPF)
Bit depth : 16 bits
Compression mode : Lossy
Stream size : 123 MiB (1%)
Title : DVO [2+2]
Language : Ukrainian
Service kind : Complete Main
Default : No
Forced : No

Audio #3
ID : 4
Format :
Format/Info : Digital Theater Systems
Format profile : MA / Core
Mode : 16
Format settings, Endianness : Big
Codec ID : A_DTS
Duration : 1 h 29 min
Bit rate mode : Variable / Constant
Bit rate : 843 kb/s / 768 kb/s
Channel(s) : 2 channels
Channel positions : Front: L R
Sampling rate : 48.0 kHz
Frame rate : 93.750 FPS (512 SPF)
Bit depth : 16 bits
Compression mode : Lossless / Lossy
Stream size : 540 MiB (3%)
Title : Original
Language : French
Default : No
Forced : No

Text #1
ID : 5
Format : PGS
Muxing mode : zlib
Codec ID : S_HDMV/PGS
Codec ID/Info : Picture based subtitle format used on BDs/HD-DVDs
Duration : 1 h 28 min
Bit rate : 29.9 kb/s
Count of elements : 2841
Stream size : 19.0 MiB (0%)
Title : Fre
Language : French
Default : No
Forced : No

Text #2
ID : 6
Format : PGS
Muxing mode : zlib
Codec ID : S_HDMV/PGS
Codec ID/Info : Picture based subtitle format used on BDs/HD-DVDs
Duration : 1 h 28 min
Bit rate : 20.1 kb/s
Count of elements : 1816
Stream size : 12.8 MiB (0%)
Title : Eng
Language : English
Default : No
Forced : No
Скріншоти
Повернення високого блондина / Le retour du grand blond (1974) Remux 1080p 2хUkr/Fre | Sub Fre






Актори: П'єр Рішар [Pierre Richard], Мірей Дарк [Mireille Darc], Бернар Бліе [Bernard Blier], Жан Рошфор [Jean Rochefort], Поль ле Персон [Paul Le Person], Жан Карме [Jean Carmet], Колетт Кастель [Colette Castel], Жан Об [Jean Obe], Робер Дальбан [Robert Dalban], Жан Содре [Jean Saudray], Моріс Бор'є [Maurice Barrier], Таня Балашова [Tania Balachova].

Сюжет:
Шпигунські ігри продовжуються. Спецслужби не дають спокою Високому блондинові. Романтичний відпочинок у Ріо-де-Жанейро перетворюється в пригоду в стилі Джеймса Бонда…


Тривалість: 01:21:05
Якість: Remux 1080p
Відео:
кодек:
розмір кадру: 1920 х 1080
бітрейт: 31,7 Мб/с

Аудіо # 1:
мова: українська
переклад: багатоголосий закадровий [K1] [ENTER] [НТН]
кодек: 2.0
бітрейт: 192 кб/с
Інформація про озвучення:

Ролі озвучили: Анатолій Пашнін, Володимир Терещук, Євген Пашин і один жіночий голос
Аудіо # 2:
мова: українська
переклад: двоголосий закадровий [2+2]
кодек: 2.0
бітрейт: 192 кб/с
Інформація про озвучення:
Аудіо # 3:
мова: французька
переклад: оригінал
кодек: -HD MA 2.0
бітрейт: 840 кб/с

Субтитри # 1: (SDH)
мова: французька
тип: пререндерні
формат: *.pgs

Субтитри # 2:
мова: англійська
тип: пререндерні
формат: *.pgs
Info
General
Unique ID : 125917923401413962449408514158055127241 (0x5EBAE8F09B9AD1CC8F01D4186D3BF8C9)
Complete name : F:\Комедії\Високий блондин у чорному черевику. Колекція\Le retour du grand blond (1974) Remux 1080p 2хUkrFre Sub Fre [Hurtom].
Format :
Format version : Version 4 / Version 2
File size : 18.6 GiB
Duration : 1 h 21 min
Overall bit rate mode : Variable
Overall bit rate : 32.9 Mb/s
Movie name : Повернення високого блондина / Le retour du grand blond (1974) Remux 1080p 2хUkr/Fre | Sub Fre [Hurtom]
Encoded date : UTC 2019-02-18 23:20:21
Writing application : v25.0.0 ('Prog Noir') 64-bit
Writing library : libebml v1.3.6 + v1.4.9

Video
ID : 1
Format : AVC
Format/Info : Advanced Video Codec
Format profile : [email protected]
Format settings, CABAC : Yes
Format settings, RefFrames : 4 frames
Format settings, GOP : M=3, N=24
Codec ID : V_MPEG4/ISO/AVC
Duration : 1 h 21 min
Bit rate mode : Variable
Bit rate : 31.7 Mb/s
Maximum bit rate : 35.0 Mb/s
Width : 1 920 pixels
Height : 1 080 pixels
Display aspect ratio : 16:9
Frame rate mode : Constant
Frame rate : 24.000 FPS
Standard : NTSC
Color space : YUV
Chroma subsampling : 4:2:0
Bit depth : 8 bits
Scan type : Progressive
Bits/(Pixel*Frame) : 0.636
Stream size : 17.9 GiB (96%)
Title : Le retour du grand blond (1974) Remux 1080p 2хUkr/Fre | Sub Fre [Hurtom]
Language : Ukrainian
Default : Yes
Forced : Yes
Color range : Limited
Color primaries : BT.709
Transfer characteristics : BT.709
Matrix coefficients : BT.709

Audio #1
ID : 2
Format : AC-3
Format/Info : Audio Coding 3
Format settings, Endianness : Big
Codec ID : A_AC3
Duration : 1 h 21 min
Bit rate mode : Constant
Bit rate : 192 kb/s
Channel(s) : 2 channels
Channel positions : Front: L R
Sampling rate : 48.0 kHz
Frame rate : 31.250 FPS (1536 SPF)
Bit depth : 16 bits
Compression mode : Lossy
Stream size : 111 MiB (1%)
Title : MVO [K1] [ENTER]
Language : Ukrainian
Service kind : Complete Main
Default : Yes
Forced : Yes

Audio #2
ID : 3
Format : AC-3
Format/Info : Audio Coding 3
Format settings, Endianness : Big
Codec ID : A_AC3
Duration : 1 h 21 min
Bit rate mode : Constant
Bit rate : 192 kb/s
Channel(s) : 2 channels
Channel positions : Front: L R
Sampling rate : 48.0 kHz
Frame rate : 31.250 FPS (1536 SPF)
Bit depth : 16 bits
Compression mode : Lossy
Stream size : 111 MiB (1%)
Title : DVO [2+2]
Language : Ukrainian
Service kind : Complete Main
Default : No
Forced : No

Audio #3
ID : 4
Format :
Format/Info : Digital Theater Systems
Format profile : MA / Core
Mode : 16
Format settings, Endianness : Big
Codec ID : A_DTS
Duration : 1 h 21 min
Bit rate mode : Variable / Constant
Bit rate : 840 kb/s / 768 kb/s
Channel(s) : 2 channels
Channel positions : Front: L R
Sampling rate : 48.0 kHz
Frame rate : 93.750 FPS (512 SPF)
Bit depth : 16 bits
Compression mode : Lossless / Lossy
Stream size : 487 MiB (3%)
Title : Original
Language : French
Default : No
Forced : No

Text #1
ID : 5
Format : PGS
Muxing mode : zlib
Codec ID : S_HDMV/PGS
Codec ID/Info : Picture based subtitle format used on BDs/HD-DVDs
Duration : 1 h 19 min
Bit rate : 32.0 kb/s
Count of elements : 2784
Stream size : 18.1 MiB (0%)
Title : Fre
Language : French
Default : No
Forced : No

Text #2
ID : 6
Format : PGS
Muxing mode : zlib
Codec ID : S_HDMV/PGS
Codec ID/Info : Picture based subtitle format used on BDs/HD-DVDs
Duration : 1 h 18 min
Bit rate : 21.2 kb/s
Count of elements : 1637
Stream size : 12.0 MiB (0%)
Title : Eng
Language : English
Default : No
Forced : No
Скріншоти
Джерело: &

Подяка п. _oles і п. willian за зведення, п. karvai0 і п. gig_Panas - запис,
п. thefir - постери.
Особиста оцінка: 10 - без зайвих вагань рекомендую всім!





Золотий реліз (завантажене не впливає на рейтинг)
 Трекер:    Зареєстрований   

Завантажити / скачати фільм українською



відео для новачків



 Зареєстрований:   2019-02-19 17:14
 Розмір:   39.57 GB 
 Оцінка фільму:   9.1/10 (Голосів: 10)
   
[email protected] 
VIP


З нами з: 25.03.17
Востаннє: 21.04.19
Повідомлень: 292

2019-02-19 21:18  
От блін, я тільки недавно дивився цю дилогію в гіршій якості, капець.
zdlr 
Свій


З нами з: 07.12.12
Востаннє: 20.04.19
Повідомлень: 54

2019-02-21 15:49  
На жаль він виявився ватником.
Ваш часовий пояс: GMT + 2 Години

Нова тема   Відповісти