Романтики 303 / 303 (2018) 1080p Ukr/Ger | Sub Eng

Нові коментарі

Нова тема   Відповісти
Автор Повідомлення
Anonymous 







2019-02-19 01:16  
Романтики 303 / 303 (2018) 1080p Ukr/Ger | Sub Eng

Романтики 303 / 303 (2018) 1080p Ukr/Ger | Sub Eng


Жанр: комедія, драма, романтичний
Країна: Німеччина



Кінокомпанія: Kahuuna Films, NEUESUPER, Starhaus Produktionen
Режисер: Ганс Вайнгартнер
Актори: Мала Емде, Антон Спікер, Арндт Шверінг-Сонрі, Томас Шмукерт, Йорг Бундшух, Стівен Ланж, Мартін Нойхаус, Ханна Шрьодер, Софія Чанетт

Сюжет:
303 - номер моделі автомобіля «Мерседес», що з'єднав двох молодих попутників - студентки Юлі і студента Яна. За сюжетом, 24-річна студентка відправляється в автомобільну подорож через всю Європу на зустріч зі своїм хлопцем. По дорозі вона підсаджує попутника - студента-політолога Яна. Вдень і вночі вони обговорюють глобальні питання, починаючи з політичного балансу сил, проблеми цивілізаційного протистояння «Схід-Захід», кризу комуністичних ідей і провалом соціалістичної експансії. Спільні інтереси змінюються симпатіями, а згодом переростають в кохання…


Тривалість: 02:24:09
Якість:
Відео:
кодек:
розмір кадру: 1920x1040
бітрейт: 9345 кб/с

Аудіо # 1:
мова: українська
переклад: багатоголосий закадровий
кодек: 5.1
бітрейт: 384 кб/с

Аудіо # 2:
мова: німецька
переклад: оригінал
кодек: 5.1
бітрейт: 1509 кб/с

Джерело озвучення:
DniproFilm

Субтитри:
мова: англійська
тип: програмні (м'які)
формат: *.srt
Info
General
Unique ID : 229460431016707841243465400454450934212 (0xACA078B5301A249AAC681F8B806671C4)
Complete name : 303.2018..1080p.Ukr.Ger.
Format :
Format version : Version 4
File size : 11.3 GiB
Duration : 2 h 24 min
Overall bit rate : 11.2 Mb/s
Encoded date : UTC 2019-02-18 14:11:46
Writing application : v8.3.0 ('Over the Horizon') 64bit
Writing library : libebml v1.3.1 + v1.4.2

Video
ID : 1
Format : AVC
Format/Info : Advanced Video Codec
Format profile : [email protected]
Format settings : CABAC / 4 Ref Frames
Format settings, CABAC : Yes
Format settings, ReFrames : 4 frames
Codec ID : V_MPEG4/ISO/AVC
Duration : 2 h 24 min
Bit rate : 9 345 kb/s
Width : 1 920 pixels
Height : 1 040 pixels
Display aspect ratio : 1.85:1
Frame rate mode : Constant
Frame rate : 24.000 FPS
Color space : YUV
Chroma subsampling : 4:2:0
Bit depth : 8 bits
Scan type : Progressive
Bits/(Pixel*Frame) : 0.195
Stream size : 9.41 GiB (83%)
Writing library : core 155 r2901 7d0ff22
Encoding settings : cabac=1 / ref=4 / deblock=1:-2:-2 / analyse=0x3:0x113 / me=umh / subme=8 / psy=1 / psy_rd=1.00:0.00 / mixed_ref=1 / me_range=16 / chroma_me=1 / trellis=2 / 8x8dct=1 / cqm=0 / deadzone=21,11 / fast_pskip=1 / chroma_qp_offset=-2 / threads=32 / lookahead_threads=5 / sliced_threads=0 / nr=0 / decimate=1 / interlaced=0 / bluray_compat=0 / constrained_intra=0 / bframes=3 / b_pyramid=2 / b_adapt=2 / b_bias=0 / direct=3 / weightb=1 / open_gop=0 / weightp=2 / keyint=240 / keyint_min=24 / scenecut=40 / intra_refresh=0 / rc_lookahead=50 / rc=2pass / mbtree=1 / bitrate=9345 / ratetol=1.0 / qcomp=0.60 / qpmin=0 / qpmax=69 / qpstep=4 / cplxblur=20.0 / qblur=0.5 / ip_ratio=1.40 / aq=1:1.00
Language : English
Default : Yes
Forced : No

Audio #1
ID : 2
Format : AC-3
Format/Info : Audio Coding 3
Commercial name : Dolby Digital
Codec ID : A_AC3
Duration : 2 h 24 min
Bit rate mode : Constant
Bit rate : 384 kb/s
Channel(s) : 6 channels
Channel layout : L R C LFE Ls Rs
Sampling rate : 48.0 kHz
Frame rate : 31.250 FPS (1536 SPF)
Bit depth : 16 bits
Compression mode : Lossy
Stream size : 396 MiB (3%)
Title : DniproFilm
Language : Ukrainian
Service kind : Complete Main
Default : Yes
Forced : No

Audio #2
ID : 3
Format :
Format/Info : Digital Theater Systems
Codec ID : A_DTS
Duration : 2 h 24 min
Bit rate mode : Constant
Bit rate : 1 509 kb/s
Channel(s) : 6 channels
Channel layout : C L R Ls Rs LFE
Sampling rate : 48.0 kHz
Frame rate : 93.750 FPS (512 SPF)
Bit depth : 24 bits
Compression mode : Lossy
Stream size : 1.52 GiB (13%)
Language : German
Default : No
Forced : No

Text
ID : 4
Format : UTF-8
Codec ID : S_TEXT/UTF8
Codec ID/Info : UTF-8 Plain Text
Duration : 2 h 18 min
Bit rate : 47 b/s
Count of elements : 1413
Stream size : 48.5 KiB (0%)
Language : English
Default : No
Forced : No

Menu
00:00:00.000 : en:00:00:00.000
00:10:58.500 : en:00:10:58.500
00:23:59.042 : en:00:23:59.042
00:36:17.167 : en:00:36:17.167
00:47:21.375 : en:00:47:21.375
01:00:06.958 : en:01:00:06.958
01:11:55.625 : en:01:11:55.625
01:23:28.792 : en:01:23:28.792
01:35:52.458 : en:01:35:52.458
01:46:33.083 : en:01:46:33.083
01:59:08.958 : en:01:59:08.958
02:10:45.542 : en:02:10:45.542
02:21:06.042 : en:02:21:06.042
Скріншоти





Джерело: &


Авторський реліз (завантажувати можна без реєстрації)
 Трекер:    Зареєстрований   

Завантажити / скачати фільм українською



відео для новачків



 Зареєстрований:   2019-02-19 01:16
 Розмір:   11.32 GB 
 Оцінка фільму:   8.3/10 (Голосів: 12)
   
Інші релізи
   Романтики 303 / 303 (2018) ssTAss  24 / 0   2.01 GB   2019-02-17 20:32 
staf777 
Відео Гуртом - підтримка та поширення
Відео Гуртом - підтримка та поширення


З нами з: 16.11.16
Востаннє: 15.12.19
Повідомлень: 3073

2019-02-19 15:18  
Ви будете оновлювати до 1080p а то я би залюбки виклав 1080p
Anonymous 







2019-02-19 15:41  
staf777 - Та це , помилково написав, виправив ...
TPEM 
Відео Гуртом - фільмокрай
Відео Гуртом - фільмокрай


З нами з: 30.01.09
Востаннє: 08.12.19
Повідомлень: 410

2019-02-24 00:42  
Гарний фільм
slavas 
Новенький


З нами з: 05.04.11
Востаннє: 10.12.19
Повідомлень: 24

2019-02-24 16:50  
Не рекомендую! Ні драми, ні комедії, ні романтики.
[email protected] 
VIP


З нами з: 24.03.17
Востаннє: 14.12.19
Повідомлень: 399

2019-02-24 21:05  
Дивитись можна
eugene_ramone 
Частий відвідувач


З нами з: 24.02.14
Востаннє: 15.12.19
Повідомлень: 26

2019-06-12 19:04  
Неймовірне кіно. Дивовижно тепле й красиве.
Avionix 
Новенький


З нами з: 16.06.19
Востаннє: 13.12.19
Повідомлень: 4

2019-11-30 23:45  
Мені сподобалось, гарний фільм, і не відчувається задовгим.
Із нарікань тільки монтаж, невеличкі помилки в цьому плані також є, та не завжди плавний перехід в сюжеті. Але це не так вже і заважає при перегляді.

hetzendorf 
Попереджень: 2
Попереджень: 2 


З нами з: 23.07.15
Востаннє: 15.12.19
Повідомлень: 2596

2019-12-14 23:59  
Наче не нудний, наче й розмови в головгероїв серйозні та змістовні, але загалом кінце так собі. Ще й надто затягнуте. І комедії там немає й близько. На раз глянути, щоби розслабитися.
6/10

Ваш часовий пояс: GMT + 2 Години

Нова тема   Відповісти