Журнал Ліги Європи 2018/2019 (18.02.2019) -AVC

Нові коментарі

Нова тема   Відповісти
Останній раз роздавалося lokk234 (2020-01-07)
Автор Повідомлення
lokk234 
Новенький


З нами з: 05.03.14
Востаннє: 26.10.20
Повідомлень: 24

2019-02-18 23:54  
Журнал Ліги Європи 2018/2019 (18.02.2019) -AVC


Журнал Ліги Європи 2018/2019 (18.02.2019) -AVC


Телеканал: Футбол 2
Опис:
До вашої уваги черговий випуск журналу Ліги Європи.


Тривалість: 00:23:07
Якість:
Відео:
кодек: MPEG-2
розмір кадру: 1024 х 576
бітрейт: 1620 кб/с

Аудіо:
мова: українська
коментатор: Кирило Круторогов
кодек: 2.0
бітрейт: 224 кб/с
Скріншоти




Info:
General
ID : 1 (0x1)
Complete name : C:\Users\Admin\Documents\UEL2\
Format : MPEG-TS
File size : 232 MiB
Duration : 23mn 07s
Overall bit rate : 1 941 Kbps

Video
ID : 256 (0x100)
Menu ID : 1 (0x1)
Format : AVC
Format/Info : Advanced Video Codec
Format profile : [email protected]
Format settings, CABAC : Yes
Format settings, ReFrames : 1 frame
Codec ID : 27
Duration : 23mn 07s
Bit rate : 1 620 Kbps
Width : 720 pixels
Height : 576 pixels
Display aspect ratio : 16:9
Frame rate : 25.000 fps
Standard : PAL
Color space : YUV
Chroma subsampling : 4:2:0
Bit depth : 8 bits
Scan type : Progressive
Bits/(Pixel*Frame) : 0.156
Stream size : 149 MiB (83%)

Audio
ID : 257 (0x101)
Menu ID : 1 (0x1)
Format :
Format/Info : Advanced Audio Codec
Format version : Version 4
Format profile : LC
Muxing mode : ADTS
Codec ID : 15
Duration : 23mn 07s
Bit rate mode : Constant
Bit rate : 224 Kbps
Channel(s) : 2 channels
Channel positions : Front: L R
Sampling rate : 44.1 KHz
Compression mode : Lossy
Delay relative to video : -555ms
Stream size : 20.6 MiB (12%)
Language : Ukrainian

Menu
ID : 4096 (0x1000)
Menu ID : 1 (0x1)
Duration : 23mn 07s
List : 256 (0x100) (AVC) / 257 (0x101) (, Ukrainian)
Language : / Ukrainian
Service name : Service01
Service provider : FFmpeg
Service type : digital television
Джерело:
Особиста оцінка: 8 - мені сподобалося.


 Трекер:    Зареєстрований   

Завантажити / скачати торрент



відео для новачків



 Зареєстрований:   2019-02-18 23:56
 Розмір:   333 MB 
 Оцінка:   10/10 (Голосів: 2)
   
Ваш часовий пояс: GMT + 2 Години

Нова тема   Відповісти