Ugasanie & Dronny Darko - Arctic Gates (2019) [] | Dark Ambient / Drone

Нові коментарі

Нова тема   Відповісти
Автор Повідомлення
kolpavel 
VIP


З нами з: 04.05.14
Востаннє: 19.03.19
Повідомлень: 1234

2019-02-18 20:26  
Ugasanie & Dronny Darko - Arctic Gates (2019) [] | Dark Ambient / Drone

Ugasanie & Dronny Darko - Arctic Gates (2019) [] | Dark Ambient / Drone


Стиль: Dark Ambient / Drone
Країна, місто: Україна, Київ / Беларусь, Ві́тебськ.
Видавець: Cryo Chamber

Виконавці:
Dronny Darko - Олег Пузан
Ugasanie - Павел Малишкін

Пісні:
    1. Behind the North Wind - 04:05
    2. Wreck - 06:54
    3. An Object - 08:04
    4. 80T-54'08.8N 49T-51'38.3E - 05:33
    5. In the Polar Sea - 09:34
    6. Absorbed by Ice - 03:46
    7. Isolation Pit - 16:00


Тривалість: 00:53:58
Мова: iнструментальнi композицii
Аудіо-кодек:
Бітрейт: 1130-1242 кб/с
Джерело: трекер
Додаткова інформація:
динамічний діапазон
foobar2000 1.2.5 / Замер динамического диапазона (DR) 1.1.1
Дата отчёта: 2019-02-17 13:45:26

--------------------------------------------------------------------------------
Анализ: Ugasanie & Dronny Darko / Arctic Gates
--------------------------------------------------------------------------------

DR Пики RMS Продолжительность трека
--------------------------------------------------------------------------------
DR9 -1.25 дБ -13.28 дБ 4:05 01-Behind the North Wind
DR9 -1.25 дБ -13.85 дБ 6:54 02-Wreck
DR8 -1.25 дБ -12.35 дБ 8:05 03-An Object
DR9 -1.25 дБ -13.07 дБ 5:33 04-80T-54'08.8N 49T-51'38.3E
DR9 -1.25 дБ -14.11 дБ 9:34 05-In the Polar Sea
DR7 -1.25 дБ -9.73 дБ 3:47 06-Absorbed by Ice
DR9 -1.25 дБ -11.35 дБ 16:00 07-Isolation Pit
--------------------------------------------------------------------------------

Количество треков: 7
Реальные значения DR: DR9

Частота: 44100 Гц
Каналов: 2
Разрядность: 24
Битрейт: 1195 кбит/с
Кодек:
================================================================================


Якщо Ви справді бажаєте підтримати українське - після прослуховування, якщо музика вам сподобалась, придбайте ліцензійний диск. Підтримаймо вітчизняних виконавців!


Срібний реліз (на рейтинг впливає 50% завантаженого)
 Трекер:    Зареєстрований   

Завантажити / скачати українську музику



відео для новачків



 Зареєстрований:   2019-02-18 20:26
 Розмір:   463 MB 
 Оцінка музики:   10/10 (Голосів: 2)
   
Ваш часовий пояс: GMT + 2 Години

Нова тема   Відповісти